<?xml version="1.0" standalone="no"?>
<!DOCTYPE svg PUBLIC "-//W3C//DTD SVG 1.1//EN" "http://www.w3.org/Graphics/SVG/1.1/DTD/svg11.dtd" >
<svg xmlns="http://www.w3.org/2000/svg">
<metadata>Generated by IcoMoon</metadata>
<defs>
<font id="wick-ui-icons" horiz-adv-x="1024">
<font-face units-per-em="1024" ascent="960" descent="-64" />
<missing-glyph horiz-adv-x="1024" />
<glyph unicode="&#x20;" horiz-adv-x="512" d="" />
<glyph unicode="&#xe900;" glyph-name="fa-0" horiz-adv-x="640" d="M0 576c0 176.8 143.2 320 320 320s320-143.2 320-320v-256c0-176.8-143.2-320-320-320s-320 143.2-320 320v256zM320 768c-106 0-192-86-192-192v-256c0-106 86-192 192-192s192 86 192 192v256c0 106-86 192-192 192z" />
<glyph unicode="&#xe901;" glyph-name="fa-1" horiz-adv-x="512" d="M320 832c0 23.6-13 45.2-33.8 56.4s-46 10-65.6-3.2l-192-128c-29.6-19.6-37.4-59.2-17.8-88.8s59.4-37.4 88.8-17.8l92.4 61.8v-584.4h-128c-35.4 0-64-28.6-64-64s28.6-64 64-64h384c35.4 0 64 28.6 64 64s-28.6 64-64 64h-128v704z" />
<glyph unicode="&#xe902;" glyph-name="fa-2" horiz-adv-x="640" d="M285.8 768c-43 0-84.4-17-114.8-47.6l-61.8-61.6c-25-25-65.6-25-90.6 0s-25 65.6 0 90.6l61.8 61.6c54.6 54.4 128.4 85 205.4 85 160.2 0 290.2-130 290.2-290.2 0-77-30.6-150.8-85-205.2l-272.4-272.6h357.4c35.4 0 64-28.6 64-64s-28.6-64-64-64h-512c-25.8 0-49.2 15.6-59.2 39.6s-4.4 51.4 13.8 69.8l381.8 381.6c30.4 30.4 47.6 71.8 47.6 114.8 0 89.6-72.6 162.2-162.2 162.2z" />
<glyph unicode="&#xe903;" glyph-name="fa-3" horiz-adv-x="640" d="M0 832c0 35.4 28.6 64 64 64h480c26.4 0 50-16.2 59.6-40.8s3-52.6-16.4-70.4l-262.6-240.8h43.4c150.2 0 272-121.8 272-272s-121.8-272-272-272h-157.2c-84.8 0-162.4 48-200.2 123.8l-3.8 7.6c-15.8 31.6-3 70 28.6 85.8s70 3 85.8-28.6l3.8-7.6c16.2-32.6 49.6-53 85.8-53h157.2c79.6 0 144 64.4 144 144s-64.4 144-144 144h-208c-26.4 0-50 16.2-59.6 40.8s-3 52.6 16.4 70.4l262.6 240.8h-315.4c-35.4 0-64 28.6-64 64z" />
<glyph unicode="&#xe904;" glyph-name="fa-4" horiz-adv-x="768" d="M378 804.8c15 32 1.4 70.2-30.6 85.2s-70.2 1.4-85.2-30.6l-256.2-544.2c-9.4-19.8-7.8-43 3.8-61.6s32.2-29.6 54.2-29.6h448v-160c0-35.4 28.6-64 64-64s64 28.6 64 64v160h64c35.4 0 64 28.6 64 64s-28.6 64-64 64h-64v288c0 35.4-28.6 64-64 64s-64-28.6-64-64v-288h-347.2l213.2 452.8z" />
<glyph unicode="&#xe905;" glyph-name="fa-5" horiz-adv-x="640" d="M65 843.4c5.6 30.4 32 52.6 63 52.6h384c35.4 0 64-28.6 64-64s-28.6-64-64-64h-330.6l-40.8-224h227.4c150.2 0 272-121.8 272-272s-121.8-272-272-272h-167c-78.8 0-150.8 44.6-186 115l-8.2 16.4c-15.8 31.6-3 70 28.6 85.8s70 3 85.8-28.6l8.2-16.4c13.6-27.2 41.2-44.2 71.6-44.2h167c79.6 0 144 64.4 144 144s-64.4 144-144 144h-304c-19 0-37 8.4-49.2 23s-17.2 33.8-13.8 52.4l64 352z" />
<glyph unicode="&#xe906;" glyph-name="fa-6" horiz-adv-x="640" d="M464.8 790.6c22.8 27 19.4 67.4-7.6 90.2s-67.4 19.4-90.2-7.6l-289.8-342.6c-47.8-56.4-75-127.4-77-201 0-2.8-0.2-5.8-0.2-8.6 0-0.4 0-0.6 0-1 0-176.8 143.2-320 320-320s320 143.2 320 320c0 171-134.2 310.8-303 319.6l127.8 151.2zM512 320c0-106.039-85.961-192-192-192s-192 85.961-192 192v0c0 106.039 85.961 192 192 192s192-85.961 192-192v0z" />
<glyph unicode="&#xe907;" glyph-name="fa-7" horiz-adv-x="640" d="M0 832c0 35.4 28.6 64 64 64h512c23 0 44-12.2 55.4-32.2s11.4-44.4-0.2-64.2l-448-768c-17.8-30.6-57-40.8-87.6-23s-40.8 57-23 87.6l392 671.8h-400.6c-35.4 0-64 28.6-64 64z" />
<glyph unicode="&#xe908;" glyph-name="fa-8" horiz-adv-x="640" d="M608 640c0 141.4-114.6 256-256 256h-64c-141.4 0-256-114.6-256-256 0-69.2 27.4-132 72-178-63-46.6-104-121.6-104-206 0-141.4 114.6-256 256-256h128c141.4 0 256 114.6 256 256 0 84.4-41 159.4-104 206 44.6 46 72 108.8 72 178zM352.2 384h31.8c70.6 0 128-57.4 128-128s-57.4-128-128-128h-128c-70.6 0-128 57.4-128 128s57.4 128 128 128h31.8c0 0 0.2 0 0.2 0h64c0 0 0.2 0 0.2 0zM352.2 512c0 0 0 0 0 0h-64.2c0 0 0 0 0 0-70.6 0-128 57.4-128 128s57.4 128 128 128h64c70.6 0 128-57.4 128-128s-57.2-128-128-128z" />
<glyph unicode="&#xe909;" glyph-name="fa-9" horiz-adv-x="640" d="M128 576c0-106.039 85.961-192 192-192s192 85.961 192 192v0c0 106.039-85.961 192-192 192s-192-85.961-192-192v0zM303 256.4c-168.8 8.8-303 148.6-303 319.6 0 176.8 143.2 320 320 320s320-143.2 320-320c0-5.2-0.2-10.6-0.4-15.8-3.4-71.4-30.4-140-76.8-194.8l-290-342.8c-22.8-27-63.2-30.4-90.2-7.6s-30.4 63.2-7.6 90.2l127.8 151.2z" />
<glyph unicode="&#xe90a;" glyph-name="fa-a" horiz-adv-x="768" d="M443 856.6c-9.8 23.8-33.2 39.4-59 39.4s-49.2-15.6-59-39.4l-320-768c-13.6-32.6 1.8-70 34.4-83.6s70 1.8 83.6 34.4l63.6 152.6h394.8l63.6-152.6c13.6-32.6 51-48 83.6-34.4s48 51 34.4 83.6l-320 768zM528 320h-288l144 345.6 144-345.6z" />
<glyph unicode="&#xe90b;" glyph-name="fa-address-book" d="M192 960c-70.6 0-128-57.4-128-128v-768c0-70.6 57.4-128 128-128h576c70.6 0 128 57.4 128 128v768c0 70.6-57.4 128-128 128h-576zM416 384h128c88.4 0 160-71.6 160-160 0-17.6-14.4-32-32-32h-384c-17.6 0-32 14.4-32 32 0 88.4 71.6 160 160 160zM352 576c0 70.692 57.308 128 128 128s128-57.308 128-128v0c0-70.692-57.308-128-128-128s-128 57.308-128 128v0zM1024 800c0 17.6-14.4 32-32 32s-32-14.4-32-32v-128c0-17.6 14.4-32 32-32s32 14.4 32 32v128zM992 576c-17.6 0-32-14.4-32-32v-128c0-17.6 14.4-32 32-32s32 14.4 32 32v128c0 17.6-14.4 32-32 32zM1024 288c0 17.6-14.4 32-32 32s-32-14.4-32-32v-128c0-17.6 14.4-32 32-32s32 14.4 32 32v128z" />
<glyph unicode="&#xe90c;" glyph-name="fa-address-card" horiz-adv-x="1152" d="M128 896c-70.6 0-128-57.4-128-128v-640c0-70.6 57.4-128 128-128h896c70.6 0 128 57.4 128 128v640c0 70.6-57.4 128-128 128h-896zM288 384h128c88.4 0 160-71.6 160-160 0-17.6-14.4-32-32-32h-384c-17.6 0-32 14.4-32 32 0 88.4 71.6 160 160 160zM224 576c0 70.692 57.308 128 128 128s128-57.308 128-128v0c0-70.692-57.308-128-128-128s-128 57.308-128 128v0zM736 640h256c17.6 0 32-14.4 32-32s-14.4-32-32-32h-256c-17.6 0-32 14.4-32 32s14.4 32 32 32zM736 512h256c17.6 0 32-14.4 32-32s-14.4-32-32-32h-256c-17.6 0-32 14.4-32 32s14.4 32 32 32zM736 384h256c17.6 0 32-14.4 32-32s-14.4-32-32-32h-256c-17.6 0-32 14.4-32 32s14.4 32 32 32z" />
<glyph unicode="&#xe90d;" glyph-name="fa-align-center" horiz-adv-x="896" d="M704 832c0 35.4-28.6 64-64 64h-384c-35.4 0-64-28.6-64-64s28.6-64 64-64h384c35.4 0 64 28.6 64 64zM896 576c0 35.4-28.6 64-64 64h-768c-35.4 0-64-28.6-64-64s28.6-64 64-64h768c35.4 0 64 28.6 64 64zM0 64c0-35.4 28.6-64 64-64h768c35.4 0 64 28.6 64 64s-28.6 64-64 64h-768c-35.4 0-64-28.6-64-64zM704 320c0 35.4-28.6 64-64 64h-384c-35.4 0-64-28.6-64-64s28.6-64 64-64h384c35.4 0 64 28.6 64 64z" />
<glyph unicode="&#xe90e;" glyph-name="fa-align-justify" horiz-adv-x="896" d="M896 832c0 35.4-28.6 64-64 64h-768c-35.4 0-64-28.6-64-64s28.6-64 64-64h768c35.4 0 64 28.6 64 64zM896 320c0 35.4-28.6 64-64 64h-768c-35.4 0-64-28.6-64-64s28.6-64 64-64h768c35.4 0 64 28.6 64 64zM0 576c0-35.4 28.6-64 64-64h768c35.4 0 64 28.6 64 64s-28.6 64-64 64h-768c-35.4 0-64-28.6-64-64zM896 64c0 35.4-28.6 64-64 64h-768c-35.4 0-64-28.6-64-64s28.6-64 64-64h768c35.4 0 64 28.6 64 64z" />
<glyph unicode="&#xe90f;" glyph-name="fa-align-left" horiz-adv-x="896" d="M576 832c0-35.4-28.6-64-64-64h-448c-35.4 0-64 28.6-64 64s28.6 64 64 64h448c35.4 0 64-28.6 64-64zM576 320c0-35.4-28.6-64-64-64h-448c-35.4 0-64 28.6-64 64s28.6 64 64 64h448c35.4 0 64-28.6 64-64zM0 576c0 35.4 28.6 64 64 64h768c35.4 0 64-28.6 64-64s-28.6-64-64-64h-768c-35.4 0-64 28.6-64 64zM896 64c0-35.4-28.6-64-64-64h-768c-35.4 0-64 28.6-64 64s28.6 64 64 64h768c35.4 0 64-28.6 64-64z" />
<glyph unicode="&#xe910;" glyph-name="fa-align-right" horiz-adv-x="896" d="M896 832c0-35.4-28.6-64-64-64h-448c-35.4 0-64 28.6-64 64s28.6 64 64 64h448c35.4 0 64-28.6 64-64zM896 320c0-35.4-28.6-64-64-64h-448c-35.4 0-64 28.6-64 64s28.6 64 64 64h448c35.4 0 64-28.6 64-64zM0 576c0 35.4 28.6 64 64 64h768c35.4 0 64-28.6 64-64s-28.6-64-64-64h-768c-35.4 0-64 28.6-64 64zM896 64c0-35.4-28.6-64-64-64h-768c-35.4 0-64 28.6-64 64s28.6 64 64 64h768c35.4 0 64-28.6 64-64z" />
<glyph unicode="&#xe911;" glyph-name="fa-anchor-circle-check" horiz-adv-x="1280" d="M640 768c0-35.346-28.654-64-64-64s-64 28.654-64 64v0c0 35.346 28.654 64 64 64s64-28.654 64-64v0zM682.2 608c51.8 34.4 85.8 93.2 85.8 160 0 106-86 192-192 192s-192-86-192-192c0-66.8 34-125.6 85.8-160h-21.8c-35.4 0-64-28.6-64-64s28.6-64 64-64h64v-416h-96c-106 0-192 86-192 192v12.2l14-14c18.8-18.8 49.2-18.8 67.8 0s18.8 49.2 0 67.8l-111.8 112c-18.8 18.8-49.2 18.8-67.8 0l-112.2-112c-18.8-18.8-18.8-49.2 0-67.8s49.2-18.8 67.8 0l14 14v-12.2c0-176.8 143.2-320 320-320h320c16.4 0 32.6 1.2 48.4 3.6-44.4 32.4-80.8 75-106 124.4h-38.2v416h64c35.4 0 64 28.6 64 64s-28.6 64-64 64h-21.8zM1280 224c0 159.058-128.942 288-288 288s-288-128.942-288-288v0c0-159.058 128.942-288 288-288s288 128.942 288 288v0zM1126.6 310.6c12.4-12.4 12.4-32.8 0-45.2l-144-144c-12.4-12.4-32.8-12.4-45.2 0l-80 80c-12.4 12.4-12.4 32.8 0 45.2s32.8 12.4 45.2 0l57.4-57.4 121.4 121.4c12.4 12.4 32.8 12.4 45.2 0z" />
<glyph unicode="&#xe912;" glyph-name="fa-anchor-circle-exclamation" horiz-adv-x="1280" d="M640 768c0-35.346-28.654-64-64-64s-64 28.654-64 64v0c0 35.346 28.654 64 64 64s64-28.654 64-64v0zM682.2 608c51.8 34.4 85.8 93.2 85.8 160 0 106-86 192-192 192s-192-86-192-192c0-66.8 34-125.6 85.8-160h-21.8c-35.4 0-64-28.6-64-64s28.6-64 64-64h64v-416h-96c-106 0-192 86-192 192v12.2l14-14c18.8-18.8 49.2-18.8 67.8 0s18.8 49.2 0 67.8l-111.8 112c-18.8 18.8-49.2 18.8-67.8 0l-112.2-112c-18.8-18.8-18.8-49.2 0-67.8s49.2-18.8 67.8 0l14 14v-12.2c0-176.8 143.2-320 320-320h320c16.4 0 32.6 1.2 48.4 3.6-44.4 32.4-80.8 75-106 124.4h-38.2v416h64c35.4 0 64 28.6 64 64s-28.6 64-64 64h-21.8zM992-64c159.058 0 288 128.942 288 288s-128.942 288-288 288v0c-159.058 0-288-128.942-288-288s128.942-288 288-288v0zM992 128c26.51 0 48-21.49 48-48s-21.49-48-48-48v0c-26.51 0-48 21.49-48 48s21.49 48 48 48v0zM992 416c17.6 0 32-14.4 32-32v-160c0-17.6-14.4-32-32-32s-32 14.4-32 32v160c0 17.6 14.4 32 32 32z" />
<glyph unicode="&#xe913;" glyph-name="fa-anchor-circle-xmark" horiz-adv-x="1280" d="M640 768c0-35.346-28.654-64-64-64s-64 28.654-64 64v0c0 35.346 28.654 64 64 64s64-28.654 64-64v0zM682.2 608c51.8 34.4 85.8 93.2 85.8 160 0 106-86 192-192 192s-192-86-192-192c0-66.8 34-125.6 85.8-160h-21.8c-35.4 0-64-28.6-64-64s28.6-64 64-64h64v-416h-96c-106 0-192 86-192 192v12.2l14-14c18.8-18.8 49.2-18.8 67.8 0s18.8 49.2 0 67.8l-111.8 112c-18.8 18.8-49.2 18.8-67.8 0l-112.2-112c-18.8-18.8-18.8-49.2 0-67.8s49.2-18.8 67.8 0l14 14v-12.2c0-176.8 143.2-320 320-320h320c16.4 0 32.6 1.2 48.4 3.6-44.4 32.4-80.8 75-106 124.4h-38.2v416h64c35.4 0 64 28.6 64 64s-28.6 64-64 64h-21.8zM992-64c159.058 0 288 128.942 288 288s-128.942 288-288 288v0c-159.058 0-288-128.942-288-288s128.942-288 288-288v0zM1110.6 297.4l-73.4-73.4 73.4-73.4c12.4-12.4 12.4-32.8 0-45.2s-32.8-12.4-45.2 0l-73.4 73.4-73.4-73.4c-12.4-12.4-32.8-12.4-45.2 0s-12.4 32.8 0 45.2l73.4 73.4-73.4 73.4c-12.4 12.4-12.4 32.8 0 45.2s32.8 12.4 45.2 0l73.4-73.4 73.4 73.4c12.4 12.4 32.8 12.4 45.2 0s12.4-32.8 0-45.2z" />
<glyph unicode="&#xe914;" glyph-name="fa-anchor-lock" horiz-adv-x="1280" d="M640 768c0-35.346-28.654-64-64-64s-64 28.654-64 64v0c0 35.346 28.654 64 64 64s64-28.654 64-64v0zM682.2 608c51.8 34.4 85.8 93.2 85.8 160 0 106-86 192-192 192s-192-86-192-192c0-66.8 34-125.6 85.8-160h-21.8c-35.4 0-64-28.6-64-64s28.6-64 64-64h64v-416h-96c-106 0-192 86-192 192v12.2l14-14c18.8-18.8 49.2-18.8 67.8 0s18.8 49.2 0 67.8l-111.8 112c-18.8 18.8-49.2 18.8-67.8 0l-112.2-112c-18.8-18.8-18.8-49.2 0-67.8s49.2-18.8 67.8 0l14 14v-12.2c0-176.8 143.2-320 320-320h320c16 0 31.8 1.2 47.2 3.4-9.6 18-15.2 38.6-15.2 60.6v66.6c-10.4-1.8-21-2.6-32-2.6h-95.8v416h64c35.4 0 64 28.6 64 64s-28.6 64-64 64h-21.8zM1056 480c35.4 0 64-28.6 64-64v-96h-128v96c0 35.4 28.6 64 64 64zM896 416v-96c-35.4 0-64-28.6-64-64v-256c0-35.4 28.6-64 64-64h320c35.4 0 64 28.6 64 64v256c0 35.4-28.6 64-64 64v96c0 88.4-71.6 160-160 160s-160-71.6-160-160z" />
<glyph unicode="&#xe915;" glyph-name="fa-anchor" horiz-adv-x="1152" d="M640 768c0-35.346-28.654-64-64-64s-64 28.654-64 64v0c0 35.346 28.654 64 64 64s64-28.654 64-64v0zM682.2 608c51.8 34.4 85.8 93.2 85.8 160 0 106-86 192-192 192s-192-86-192-192c0-66.8 34-125.6 85.8-160h-21.8c-35.4 0-64-28.6-64-64s28.6-64 64-64h64v-416h-96c-106 0-192 86-192 192v12.2l14-14c18.8-18.8 49.2-18.8 67.8 0s18.8 49.2 0 67.8l-111.8 112c-18.8 18.8-49.2 18.8-67.8 0l-112.2-112c-18.8-18.8-18.8-49.2 0-67.8s49.2-18.8 67.8 0l14 14v-12.2c0-176.8 143.2-320 320-320h320c176.8 0 320 143.2 320 320v12.2l14-14c18.8-18.8 49.2-18.8 67.8 0s18.8 49.2 0 67.8l-112 112c-18.8 18.8-49.2 18.8-67.8 0l-112-112c-18.8-18.8-18.8-49.2 0-67.8s49.2-18.8 67.8 0l14 14v-12.2c0-106-86-192-192-192h-95.6v416h64c35.4 0 64 28.6 64 64s-28.6 64-64 64h-21.8z" />
<glyph unicode="&#xe916;" glyph-name="fa-angle-down" horiz-adv-x="896" d="M402.8 210.8c25-25 65.6-25 90.6 0l320 320c25 25 25 65.6 0 90.6s-65.6 25-90.6 0l-274.8-274.8-274.8 274.6c-25 25-65.6 25-90.6 0s-25-65.6 0-90.6l320-320z" />
<glyph unicode="&#xe917;" glyph-name="fa-angle-left" horiz-adv-x="640" d="M82.8 493.2c-25-25-25-65.6 0-90.6l320-320c25-25 65.6-25 90.6 0s25 65.6 0 90.6l-274.8 274.8 274.6 274.8c25 25 25 65.6 0 90.6s-65.6 25-90.6 0l-320-320z" />
<glyph unicode="&#xe918;" glyph-name="fa-angle-right" horiz-adv-x="640" d="M557.2 493.2c25-25 25-65.6 0-90.6l-320-320c-25-25-65.6-25-90.6 0s-25 65.6 0 90.6l274.8 274.8-274.6 274.8c-25 25-25 65.6 0 90.6s65.6 25 90.6 0l320-320z" />
<glyph unicode="&#xe919;" glyph-name="fa-angle-up" horiz-adv-x="896" d="M402.8 685.2c25 25 65.6 25 90.6 0l320-320c25-25 25-65.6 0-90.6s-65.6-25-90.6 0l-274.8 274.8-274.8-274.6c-25-25-65.6-25-90.6 0s-25 65.6 0 90.6l320 320z" />
<glyph unicode="&#xe91a;" glyph-name="fa-angles-down" horiz-adv-x="896" d="M493.2 18.8c-25-25-65.6-25-90.6 0l-320 320c-25 25-25 65.6 0 90.6s65.6 25 90.6 0l274.8-274.8 274.8 274.6c25 25 65.6 25 90.6 0s25-65.6 0-90.6l-320-320zM813.2 722.8l-320-320c-25-25-65.6-25-90.6 0l-320 320c-25 25-25 65.6 0 90.6s65.6 25 90.6 0l274.8-274.8 274.8 274.6c25 25 65.6 25 90.6 0s25-65.6 0-90.6z" />
<glyph unicode="&#xe91b;" glyph-name="fa-angles-left" d="M82.8 493.2c-25-25-25-65.6 0-90.6l320-320c25-25 65.6-25 90.6 0s25 65.6 0 90.6l-274.8 274.8 274.6 274.8c25 25 25 65.6 0 90.6s-65.6 25-90.6 0l-320-320zM786.8 813.2l-320-320c-25-25-25-65.6 0-90.6l320-320c25-25 65.6-25 90.6 0s25 65.6 0 90.6l-274.8 274.8 274.6 274.8c25 25 25 65.6 0 90.6s-65.6 25-90.6 0z" />
<glyph unicode="&#xe91c;" glyph-name="fa-angles-right" d="M941.2 402.8c25 25 25 65.6 0 90.6l-320 320c-25 25-65.6 25-90.6 0s-25-65.6 0-90.6l274.8-274.8-274.6-274.8c-25-25-25-65.6 0-90.6s65.6-25 90.6 0l320 320zM237.2 82.8l320 320c25 25 25 65.6 0 90.6l-320 320c-25 25-65.6 25-90.6 0s-25-65.6 0-90.6l274.8-274.8-274.6-274.8c-25-25-25-65.6 0-90.6s65.6-25 90.6 0z" />
<glyph unicode="&#xe91d;" glyph-name="fa-angles-up" horiz-adv-x="896" d="M493.2 877.2c-25 25-65.6 25-90.6 0l-320-320c-25-25-25-65.6 0-90.6s65.6-25 90.6 0l274.8 274.8 274.8-274.6c25-25 65.6-25 90.6 0s25 65.6 0 90.6l-320 320zM813.2 173.2l-320 320c-25 25-65.6 25-90.6 0l-320-320c-25-25-25-65.6 0-90.6s65.6-25 90.6 0l274.8 274.8 274.8-274.6c25-25 65.6-25 90.6 0s25 65.6 0 90.6z" />
<glyph unicode="&#xe91e;" glyph-name="fa-ankh" horiz-adv-x="640" d="M192 704c0 70.6 57.4 128 128 128s128-57.4 128-128c0-83.2-41.4-153.2-93.2-208.2-11.8-12.4-23.6-23.6-34.8-33.4-11.2 9.8-23 21-34.8 33.4-51.8 55-93.2 125-93.2 208.2zM320 960c-141.4 0-256-114.6-256-256 0-104.8 43-191 93.6-256h-93.6c-35.4 0-64-28.6-64-64s28.6-64 64-64h192v-320c0-35.4 28.6-64 64-64s64 28.6 64 64v320h192c35.4 0 64 28.6 64 64s-28.6 64-64 64h-93.6c50.8 65 93.6 151.2 93.6 256 0 141.4-114.6 256-256 256z" />
<glyph unicode="&#xe91f;" glyph-name="fa-apple-whole" horiz-adv-x="896" d="M448 736c-17.6 0-32 14.4-32 32v32c0 88.4 71.6 160 160 160h32c17.6 0 32-14.4 32-32v-32c0-88.4-71.6-160-160-160h-32zM0 384c0 152.6 71.4 320 224 320 54.6 0 119.4-20.6 165.4-38.6 37.6-14.6 79.8-14.6 117.4 0 45.8 17.8 110.8 38.6 165.4 38.6 152.6 0 224-167.4 224-320 0-256-160-448-320-448-33 0-76.2 13.2-103 22.6-16.2 5.6-33.8 5.6-50 0-26.8-9.4-70-22.6-103-22.6-160.2 0-320.2 192-320.2 448z" />
<glyph unicode="&#xe920;" glyph-name="fa-archway" d="M64 896c-35.4 0-64-28.6-64-64s28.6-64 64-64h896c35.4 0 64 28.6 64 64s-28.6 64-64 64h-896zM64 128c-35.4 0-64-28.6-64-64s28.6-64 64-64h256v256c0 106 86 192 192 192s192-86 192-192v-256h256c35.4 0 64 28.6 64 64s-28.6 64-64 64v576h-896v-576z" />
<glyph unicode="&#xe921;" glyph-name="fa-arrow-down-1-9" horiz-adv-x="1152" d="M901.4 884c-16.6 12-38.2 15.4-57.6 8.8l-96-32c-33.6-11.2-51.6-47.4-40.4-81s47.4-51.6 81-40.4l11.8 4v-103.4h-32.2c-35.4 0-64-28.6-64-64s28.6-64 64-64h192c35.4 0 64 28.6 64 64s-28.6 64-64 64h-32v192c0 20.6-9.8 39.8-26.6 52zM320 0c18 0 35 7.6 47.2 20.8l176 192c23.8 26 22.2 66.6-4 90.4s-66.6 22.2-90.4-4l-64.8-70.6v603.4c0 35.4-28.6 64-64 64s-64-28.6-64-64v-603.4l-64.8 70.6c-23.8 26-64.4 27.8-90.4 4s-27.8-64.4-4-90.4l176-192c12.2-13.2 29.2-20.8 47.2-20.8zM836.6 346c8.021 3.885 17.445 6.156 27.4 6.156 35.377 0 64.056-28.679 64.056-64.056 0-25.422-14.81-47.386-36.273-57.733l-0.383-0.167c-8.021-3.885-17.445-6.156-27.4-6.156-35.377 0-64.056 28.679-64.056 64.056 0 25.422 14.81 47.386 36.273 57.733l0.383 0.167zM810.2 120.4l-13.6-18.4c-21-28.4-15-68.4 13.4-89.6s68.4-15 89.6 13.4l97.6 131.6c28 37.8 43 83.4 43 130.4 0 97.2-78.8 176-176 176s-176-78.8-176-176c0-78.4 51.2-144.8 122.2-167.6z" />
<glyph unicode="&#xe922;" glyph-name="fa-arrow-down-9-1" horiz-adv-x="1152" d="M320 0c18 0 35 7.6 47.2 20.8l176 192c23.8 26 22.2 66.6-4 90.4s-66.6 22.2-90.4-4l-64.8-70.6v603.4c0 35.4-28.6 64-64 64s-64-28.6-64-64v-603.4l-64.8 70.6c-23.8 26-64.4 27.8-90.4 4s-27.8-64.4-4-90.4l176-192c12.2-13.2 29.2-20.8 47.2-20.8zM901.4 372c-16.6 12-38.2 15.4-57.6 8.8l-96-32c-33.6-11.2-51.6-47.4-40.4-81s47.4-51.6 81-40.4l11.8 4v-103.4h-32.2c-35.4 0-64-28.6-64-64s28.6-64 64-64h192c35.4 0 64 28.6 64 64s-28.6 64-64 64h-32v192c0 20.6-9.8 39.8-26.6 52zM836.6 778c8.021 3.885 17.445 6.156 27.4 6.156 35.377 0 64.056-28.679 64.056-64.056 0-25.422-14.81-47.386-36.273-57.733l-0.383-0.167c-8.021-3.885-17.445-6.156-27.4-6.156-35.377 0-64.056 28.679-64.056 64.056 0 25.422 14.81 47.386 36.273 57.733l0.383 0.167zM810.2 552.4l-13.6-18.4c-21-28.4-15-68.4 13.4-89.6s68.4-15 89.6 13.4l97.6 131.6c28 37.8 43 83.4 43 130.4 0 97.2-78.8 176-176 176s-176-78.8-176-176c0-78.4 51.2-144.8 122.2-167.6z" />
<glyph unicode="&#xe923;" glyph-name="fa-arrow-down-a-z" horiz-adv-x="1152" d="M367.2 20.8c-12.2-13.2-29.2-20.8-47.2-20.8s-35 7.6-47.2 20.8l-176 192c-23.8 26-22.2 66.6 4 90.4s66.6 22.2 90.4-4l64.8-70.6v603.4c0 35.4 28.6 64 64 64s64-28.6 64-64v-603.4l64.8 70.8c23.8 26 64.4 27.8 90.4 4s27.8-64.4 4-90.4l-176-192zM640 320c0 35.4 28.6 64 64 64h256c25.8 0 49.2-15.6 59.2-39.6s4.4-51.4-13.8-69.8l-146.8-146.6h101.4c35.4 0 64-28.6 64-64s-28.6-64-64-64h-256c-25.8 0-49.2 15.6-59.2 39.6s-4.4 51.4 13.8 69.8l146.8 146.6h-101.4c-35.4 0-64 28.6-64 64zM832 896c24.2 0 46.4-13.6 57.2-35.4l160-320c15.8-31.6 3-70-28.6-85.8s-70-3-85.8 28.6l-14.4 28.6h-176.8l-14.4-28.6c-15.8-31.6-54.2-44.4-85.8-28.6s-44.4 54.2-28.6 85.8l160 320c10.8 21.8 33 35.4 57.2 35.4zM791.6 608h80.8l-40.4 80.8-40.4-80.8z" />
<glyph unicode="&#xe924;" glyph-name="fa-arrow-down-long" horiz-adv-x="768" d="M338.8-45.2c25-25 65.6-25 90.6 0l256 256c25 25 25 65.6 0 90.6s-65.6 25-90.6 0l-146.8-146.8v741.4c0 35.4-28.6 64-64 64s-64-28.6-64-64v-741.4l-146.8 146.6c-25 25-65.6 25-90.6 0s-25-65.6 0-90.6l256-256z" />
<glyph unicode="&#xe925;" glyph-name="fa-arrow-down-short-wide" horiz-adv-x="1152" d="M303.2 20.8c-12.2-13.2-29.2-20.8-47.2-20.8s-35 7.6-47.2 20.8l-176 192c-23.8 26-22.2 66.6 4 90.4s66.6 22.2 90.4-4l64.8-70.6v603.4c0 35.4 28.6 64 64 64s64-28.6 64-64v-603.4l64.8 70.8c23.8 26 64.4 27.8 90.4 4s27.8-64.4 4-90.4l-176-192zM640 896h64c35.4 0 64-28.6 64-64s-28.6-64-64-64h-64c-35.4 0-64 28.6-64 64s28.6 64 64 64zM640 640h192c35.4 0 64-28.6 64-64s-28.6-64-64-64h-192c-35.4 0-64 28.6-64 64s28.6 64 64 64zM640 384h320c35.4 0 64-28.6 64-64s-28.6-64-64-64h-320c-35.4 0-64 28.6-64 64s28.6 64 64 64zM640 128h448c35.4 0 64-28.6 64-64s-28.6-64-64-64h-448c-35.4 0-64 28.6-64 64s28.6 64 64 64z" />
<glyph unicode="&#xe926;" glyph-name="fa-arrow-down-up-across-line" horiz-adv-x="1152" d="M274.8-45.2c25-25 65.6-25 90.6 0l192 192c25 25 25 65.6 0 90.6s-65.6 25-90.6 0l-82.8-82.8v229.4h704c35.4 0 64 28.6 64 64s-28.6 64-64 64h-192v229.4l82.8-82.8c25-25 65.6-25 90.6 0s25 65.6 0 90.6l-192 192c-25 25-65.6 25-90.6 0l-192-192c-25-25-25-65.6 0-90.6s65.6-25 90.6 0l82.6 82.8v-229.4h-704c-35.4 0-64-28.6-64-64s28.6-64 64-64h192v-229.4l-82.8 82.6c-25 25-65.6 25-90.6 0s-25-65.6 0-90.6l192-192zM256 576h128v256c0 35.4-28.6 64-64 64s-64-28.6-64-64v-256zM896 320h-128v-256c0-35.4 28.6-64 64-64s64 28.6 64 64v256z" />
<glyph unicode="&#xe927;" glyph-name="fa-arrow-down-up-lock" horiz-adv-x="1280" d="M301.2-45.2l192 192c25 25 25 65.6 0 90.6s-65.6 25-90.6 0l-82.6-82.8v229.4h512v32c0 34.4 7.8 67 21.6 96h-149.6v229.4l82.8-82.8c25-25 65.6-25 90.6 0s25 65.6 0 90.6l-192 192c-12 12-28.2 18.8-45.2 18.8s-33.2-6.8-45.2-18.8l-192-192c-25-25-25-65.6 0-90.6s65.6-25 90.6 0l82.4 82.8v-229.4h-512c-35.4 0-64-28.6-64-64s28.6-64 64-64h128v-229.4l-82.8 82.6c-25 25-65.6 25-90.6 0s-25-65.6 0-90.6l192-192c25-25 65.6-25 90.6 0zM320 576v256c0 35.4-28.6 64-64 64s-64-28.6-64-64v-256h128zM576 320v-256c0-35.4 28.6-64 64-64s64 28.6 64 64v256h-128zM1056 480c35.4 0 64-28.6 64-64v-96h-128v96c0 35.4 28.6 64 64 64zM896 416v-96c-35.4 0-64-28.6-64-64v-256c0-35.4 28.6-64 64-64h320c35.4 0 64 28.6 64 64v256c0 35.4-28.6 64-64 64v96c0 88.4-71.6 160-160 160s-160-71.6-160-160z" />
<glyph unicode="&#xe928;" glyph-name="fa-arrow-down-wide-short" horiz-adv-x="1152" d="M303.2 20.8c-12.2-13.2-29.2-20.8-47.2-20.8s-35 7.6-47.2 20.8l-176 192c-23.8 26-22.2 66.6 4 90.4s66.6 22.2 90.4-4l64.8-70.6v603.4c0 35.4 28.6 64 64 64s64-28.6 64-64v-603.4l64.8 70.8c23.8 26 64.4 27.8 90.4 4s27.8-64.4 4-90.4l-176-192zM640 0c-35.4 0-64 28.6-64 64s28.6 64 64 64h64c35.4 0 64-28.6 64-64s-28.6-64-64-64h-64zM640 256c-35.4 0-64 28.6-64 64s28.6 64 64 64h192c35.4 0 64-28.6 64-64s-28.6-64-64-64h-192zM640 512c-35.4 0-64 28.6-64 64s28.6 64 64 64h320c35.4 0 64-28.6 64-64s-28.6-64-64-64h-320zM640 768c-35.4 0-64 28.6-64 64s28.6 64 64 64h448c35.4 0 64-28.6 64-64s-28.6-64-64-64h-448z" />
<glyph unicode="&#xe929;" glyph-name="fa-arrow-down-z-a" horiz-adv-x="1152" d="M367.2 20.8c-12.2-13.2-29.2-20.8-47.2-20.8s-35 7.6-47.2 20.8l-176 192c-23.8 26-22.2 66.6 4 90.4s66.6 22.2 90.4-4l64.8-70.6v603.4c0 35.4 28.6 64 64 64s64-28.6 64-64v-603.4l64.8 70.8c23.8 26 64.4 27.8 90.4 4s27.8-64.4 4-90.4l-176-192zM640 832c0 35.4 28.6 64 64 64h256c25.8 0 49.2-15.6 59.2-39.6s4.4-51.4-13.8-69.8l-146.8-146.6h101.4c35.4 0 64-28.6 64-64s-28.6-64-64-64h-256c-25.8 0-49.2 15.6-59.2 39.6s-4.4 51.4 13.8 69.8l146.8 146.6h-101.4c-35.4 0-64 28.6-64 64zM832 448c24.2 0 46.4-13.6 57.2-35.4l160-320c15.8-31.6 3-70-28.6-85.8s-70-3-85.8 28.6l-14.4 28.6h-176.8l-14.4-28.6c-15.8-31.6-54.2-44.4-85.8-28.6s-44.4 54.2-28.6 85.8l160 320c10.8 21.6 33 35.4 57.2 35.4zM791.6 160h80.8l-40.4 80.8-40.4-80.8z" />
<glyph unicode="&#xe92a;" glyph-name="fa-arrow-down" horiz-adv-x="768" d="M338.8 18.8c25-25 65.6-25 90.6 0l320 320c25 25 25 65.6 0 90.6s-65.6 25-90.6 0l-210.8-211v613.6c0 35.4-28.6 64-64 64s-64-28.6-64-64v-613.4l-210.8 210.6c-25 25-65.6 25-90.6 0s-25-65.6 0-90.6l320-320z" />
<glyph unicode="&#xe92b;" glyph-name="fa-arrow-left-long" d="M18.8 493.2c-25-25-25-65.6 0-90.6l256-256c25-25 65.6-25 90.6 0s25 65.6 0 90.6l-146.8 146.8h741.4c35.4 0 64 28.6 64 64s-28.6 64-64 64h-741.4l146.8 146.8c25 25 25 65.6 0 90.6s-65.6 25-90.6 0l-256-256z" />
<glyph unicode="&#xe92c;" glyph-name="fa-arrow-left" horiz-adv-x="896" d="M18.8 493.2c-25-25-25-65.6 0-90.6l320-320c25-25 65.6-25 90.6 0s25 65.6 0 90.6l-211 210.8h613.6c35.4 0 64 28.6 64 64s-28.6 64-64 64h-613.4l210.6 210.8c25 25 25 65.6 0 90.6s-65.6 25-90.6 0l-320-320z" />
<glyph unicode="&#xe92d;" glyph-name="fa-arrow-pointer" horiz-adv-x="640" d="M0 849.6v-741.6c0-24.4 19.8-44 44-44 12.6 0 24.8 5.4 33.2 15l165.2 189 116.2-232.6c15.8-31.6 54.2-44.4 85.8-28.6s44.4 54.2 28.6 85.8l-113.4 227.4h236.2c24.4 0 44.2 19.8 44.2 44.2 0 12.6-5.4 24.6-14.8 33l-548 487c-8.6 7.6-19.4 11.8-30.8 11.8-25.6 0-46.4-20.8-46.4-46.4z" />
<glyph unicode="&#xe92e;" glyph-name="fa-arrow-right-arrow-left" horiz-adv-x="896" d="M877.2 658.8c25 25 25 65.6 0 90.6l-192 192c-25 25-65.6 25-90.6 0s-25-65.6 0-90.6l82.8-82.8h-613.4c-35.4 0-64-28.6-64-64s28.6-64 64-64h613.4l-82.8-82.8c-25-25-25-65.6 0-90.6s65.6-25 90.6 0l192 192zM210.6-45.2c25-25 65.6-25 90.6 0s25 65.6 0 90.6l-82.6 82.6h613.4c35.4 0 64 28.6 64 64s-28.6 64-64 64h-613.4l82.8 82.8c25 25 25 65.6 0 90.6s-65.6 25-90.6 0l-192-192c-25-25-25-65.6 0-90.6l192-192z" />
<glyph unicode="&#xe92f;" glyph-name="fa-arrow-right-from-bracket" d="M1005.2 402.8c25 25 25 65.6 0 90.6l-256 256c-25 25-65.6 25-90.6 0s-25-65.6 0-90.6l146.8-146.8h-421.4c-35.4 0-64-28.6-64-64s28.6-64 64-64h421.4l-146.8-146.8c-25-25-25-65.6 0-90.6s65.6-25 90.6 0l256 256zM320 768c35.4 0 64 28.6 64 64s-28.6 64-64 64h-128c-106 0-192-86-192-192v-512c0-106 86-192 192-192h128c35.4 0 64 28.6 64 64s-28.6 64-64 64h-128c-35.4 0-64 28.6-64 64v512c0 35.4 28.6 64 64 64h128z" />
<glyph unicode="&#xe930;" glyph-name="fa-arrow-right-long" d="M1005.2 402.8c25 25 25 65.6 0 90.6l-256 256c-25 25-65.6 25-90.6 0s-25-65.6 0-90.6l146.8-146.8h-741.4c-35.4 0-64-28.6-64-64s28.6-64 64-64h741.4l-146.8-146.8c-25-25-25-65.6 0-90.6s65.6-25 90.6 0l256 256z" />
<glyph unicode="&#xe931;" glyph-name="fa-arrow-right-to-bracket" d="M704 768h128c35.4 0 64-28.6 64-64v-512c0-35.4-28.6-64-64-64h-128c-35.4 0-64-28.6-64-64s28.6-64 64-64h128c106 0 192 86 192 192v512c0 106-86 192-192 192h-128c-35.4 0-64-28.6-64-64s28.6-64 64-64zM685.2 402.8c25 25 25 65.6 0 90.6l-256 256c-25 25-65.6 25-90.6 0s-25-65.6 0-90.6l146.8-146.8h-421.4c-35.4 0-64-28.6-64-64s28.6-64 64-64h421.4l-146.8-146.8c-25-25-25-65.6 0-90.6s65.6-25 90.6 0l256 256z" />
<glyph unicode="&#xe932;" glyph-name="fa-arrow-right-to-city" horiz-adv-x="1280" d="M576 864c0 53 43 96 96 96h192c53 0 96-43 96-96v-288h80v144c0 26.6 21.4 48 48 48s48-21.4 48-48v-144h48c53 0 96-43 96-96v-448c0-53-43-96-96-96h-512c-53 0-96 43-96 96v832zM704 800v-64c0-17.6 14.4-32 32-32h64c17.6 0 32 14.4 32 32v64c0 17.6-14.4 32-32 32h-64c-17.6 0-32-14.4-32-32zM736 640c-17.6 0-32-14.4-32-32v-64c0-17.6 14.4-32 32-32h64c17.6 0 32 14.4 32 32v64c0 17.6-14.4 32-32 32h-64zM704 416v-64c0-17.6 14.4-32 32-32h64c17.6 0 32 14.4 32 32v64c0 17.6-14.4 32-32 32h-64c-17.6 0-32-14.4-32-32zM1056 448c-17.6 0-32-14.4-32-32v-64c0-17.6 14.4-32 32-32h64c17.6 0 32 14.4 32 32v64c0 17.6-14.4 32-32 32h-64zM1024 224v-64c0-17.6 14.4-32 32-32h64c17.6 0 32 14.4 32 32v64c0 17.6-14.4 32-32 32h-64c-17.6 0-32-14.4-32-32zM333.2 653.2l160-160c25-25 25-65.6 0-90.6l-160-160c-25-25-65.6-25-90.6 0s-25 65.6 0 90.6l50.8 50.8h-229.4c-35.4 0-64 28.6-64 64s28.6 64 64 64h229.4l-50.8 50.8c-25 25-25 65.6 0 90.6s65.6 25 90.6 0z" />
<glyph unicode="&#xe933;" glyph-name="fa-arrow-right" horiz-adv-x="896" d="M877.2 402.8c25 25 25 65.6 0 90.6l-320 320c-25 25-65.6 25-90.6 0s-25-65.6 0-90.6l211-210.8h-613.6c-35.4 0-64-28.6-64-64s28.6-64 64-64h613.4l-210.6-210.8c-25-25-25-65.6 0-90.6s65.6-25 90.6 0l320 320z" />
<glyph unicode="&#xe934;" glyph-name="fa-arrow-rotate-left" d="M251.4 640h100.6c35.4 0 64-28.6 64-64s-28.6-64-64-64h-256c-35.4 0-64 28.6-64 64v256c0 35.4 28.6 64 64 64s64-28.6 64-64v-102.4l35.2 35.2c175 175 458.6 175 633.6 0s175-458.6 0-633.6-458.6-175-633.6 0c-25 25-25 65.6 0 90.6s65.6 25 90.6 0c125-125 327.6-125 452.6 0s125 327.6 0 452.6-327.6 125-452.6 0l-34.4-34.4z" />
<glyph unicode="&#xe935;" glyph-name="fa-arrow-rotate-right" d="M772.6 640h-100.6c-35.4 0-64-28.6-64-64s28.6-64 64-64h256c35.4 0 64 28.6 64 64v256c0 35.4-28.6 64-64 64s-64-28.6-64-64v-102.4l-35.2 35.2c-175 175-458.6 175-633.6 0s-175-458.6 0-633.6 458.6-175 633.6 0c25 25 25 65.6 0 90.6s-65.6 25-90.6 0c-125-125-327.6-125-452.6 0s-125 327.6 0 452.6 327.6 125 452.6 0l34.4-34.4z" />
<glyph unicode="&#xe936;" glyph-name="fa-arrow-trend-down" horiz-adv-x="1152" d="M768 256c-35.4 0-64-28.6-64-64s28.6-64 64-64h320c35.4 0 64 28.6 64 64v320c0 35.4-28.6 64-64 64s-64-28.6-64-64v-165.4l-338.8 338.6c-25 25-65.6 25-90.6 0l-210.6-210.6-274.8 274.6c-25 25-65.6 25-90.6 0s-25-65.6 0-90.6l320-320c25-25 65.6-25 90.6 0l210.8 210.8 293.4-293.4h-165.4z" />
<glyph unicode="&#xe937;" glyph-name="fa-arrow-trend-up" horiz-adv-x="1152" d="M768 640c-35.4 0-64 28.6-64 64s28.6 64 64 64h320c35.4 0 64-28.6 64-64v-320c0-35.4-28.6-64-64-64s-64 28.6-64 64v165.4l-338.8-338.6c-25-25-65.6-25-90.6 0l-210.6 210.6-274.8-274.6c-25-25-65.6-25-90.6 0s-25 65.6 0 90.6l320 320c25 25 65.6 25 90.6 0l210.8-210.8 293.4 293.4h-165.4z" />
<glyph unicode="&#xe938;" glyph-name="fa-arrow-turn-down" horiz-adv-x="768" d="M64 832c-35.4 0-64 28.6-64 64s28.6 64 64 64h192c106 0 192-86 192-192v-613.4l146.8 146.8c25 25 65.6 25 90.6 0s25-65.6 0-90.6l-256-256c-25-25-65.6-25-90.6 0l-256 256c-25 25-25 65.6 0 90.6s65.6 25 90.6 0l146.6-146.8v613.4c0 35.4-28.6 64-64 64h-192z" />
<glyph unicode="&#xe939;" glyph-name="fa-arrow-turn-up" horiz-adv-x="768" d="M64 64c-35.4 0-64-28.6-64-64s28.6-64 64-64h192c106 0 192 86 192 192v613.4l146.8-146.8c25-25 65.6-25 90.6 0s25 65.6 0 90.6l-256 256c-25 25-65.6 25-90.6 0l-256-256c-25-25-25-65.6 0-90.6s65.6-25 90.6 0l146.6 146.8v-613.4c0-35.4-28.6-64-64-64h-192z" />
<glyph unicode="&#xe93a;" glyph-name="fa-arrow-up-1-9" horiz-adv-x="1152" d="M901.4 884c16.6-12 26.6-31.4 26.6-52v-192h32c35.4 0 64-28.6 64-64s-28.6-64-64-64h-192c-35.4 0-64 28.6-64 64s28.6 64 64 64h32v103.2l-11.8-4c-33.6-11.2-69.8 7-81 40.4s7 69.8 40.4 81l96 32c19.6 6.6 41 3.2 57.6-8.8zM320 896c18 0 35-7.6 47.2-20.8l176-192c23.8-26 22.2-66.6-4-90.4s-66.6-22.2-90.4 4l-64.8 70.6v-603.4c0-35.4-28.6-64-64-64s-64 28.6-64 64v603.4l-64.8-70.6c-23.8-26-64.4-27.8-90.4-4s-27.8 64.4-4 90.4l176 192c12.2 13.2 29.2 20.8 47.2 20.8zM891.4 230.2c21.846 10.514 36.656 32.478 36.656 57.9 0 35.377-28.679 64.056-64.056 64.056-9.955 0-19.379-2.271-27.783-6.323l0.383 0.167c-21.846-10.514-36.656-32.478-36.656-57.9 0-35.377 28.679-64.056 64.056-64.056 9.955 0 19.379 2.271 27.783 6.323l-0.383-0.167zM810 120.4c-70.8 22.8-122 89.2-122 167.6 0 97.2 78.8 176 176 176s176-78.8 176-176c0-47-15-92.6-43-130.4l-97.6-131.6c-21-28.4-61.2-34.4-89.6-13.4s-34.4 61.2-13.4 89.6l13.6 18.4z" />
<glyph unicode="&#xe93b;" glyph-name="fa-arrow-up-9-1" horiz-adv-x="1152" d="M320 896c18 0 35-7.6 47.2-20.8l176-192c23.8-26 22.2-66.6-4-90.4s-66.6-22.2-90.4 4l-64.8 70.6v-603.4c0-35.4-28.6-64-64-64s-64 28.6-64 64v603.4l-64.8-70.6c-23.8-26-64.4-27.8-90.4-4s-27.8 64.4-4 90.4l176 192c12.2 13.2 29.2 20.8 47.2 20.8zM901.4 372c16.6-12 26.6-31.4 26.6-52v-192h32c35.4 0 64-28.6 64-64s-28.6-64-64-64h-192c-35.4 0-64 28.6-64 64s28.6 64 64 64h32v103.2l-11.8-4c-33.6-11.2-69.8 7-81 40.4s7 69.8 40.4 81l96 32c19.6 6.6 41 3.2 57.6-8.8zM891.4 662.2c21.846 10.514 36.656 32.478 36.656 57.9 0 35.377-28.679 64.056-64.056 64.056-9.955 0-19.379-2.271-27.783-6.323l0.383 0.167c-21.846-10.514-36.656-32.478-36.656-57.9 0-35.377 28.679-64.056 64.056-64.056 9.955 0 19.379 2.271 27.783 6.323l-0.383-0.167zM810 552.4c-70.8 22.8-122 89.2-122 167.6 0 97.2 78.8 176 176 176s176-78.8 176-176c0-47-15-92.6-43-130.4l-97.6-131.6c-21-28.4-61.2-34.4-89.6-13.4s-34.4 61.2-13.4 89.6l13.6 18.4z" />
<glyph unicode="&#xe93c;" glyph-name="fa-arrow-up-a-z" horiz-adv-x="1152" d="M367.2 875.2c-12.2 13.2-29.2 20.8-47.2 20.8s-35-7.6-47.2-20.8l-176-192c-23.8-26-22.2-66.6 4-90.4s66.6-22.2 90.4 4l64.8 70.6v-603.4c0-35.4 28.6-64 64-64s64 28.6 64 64v603.4l64.8-70.8c23.8-26 64.4-27.8 90.4-4s27.8 64.4 4 90.4l-176 192zM640 320c0-35.4 28.6-64 64-64h101.4l-146.8-146.8c-18.4-18.4-23.8-45.8-13.8-69.8s33.2-39.6 59.2-39.6h256c35.4 0 64 28.6 64 64s-28.6 64-64 64h-101.4l146.8 146.8c18.4 18.4 23.8 45.8 13.8 69.8s-33.2 39.6-59.2 39.6h-256c-35.4 0-64-28.6-64-64zM832 896c-24.2 0-46.4-13.6-57.2-35.4l-160-320c-15.8-31.6-3-70 28.6-85.8s70-3 85.8 28.6l14.4 28.6h176.8l14.4-28.6c15.8-31.6 54.2-44.4 85.8-28.6s44.4 54.2 28.6 85.8l-160 320c-10.8 21.8-33 35.4-57.2 35.4zM791.6 608l40.4 80.8 40.4-80.8h-80.8z" />
<glyph unicode="&#xe93d;" glyph-name="fa-arrow-up-from-bracket" horiz-adv-x="896" d="M493.2 941.2c-25 25-65.6 25-90.6 0l-256-256c-25-25-25-65.6 0-90.6s65.6-25 90.6 0l146.8 146.8v-421.4c0-35.4 28.6-64 64-64s64 28.6 64 64v421.4l146.8-146.8c25-25 65.6-25 90.6 0s25 65.6 0 90.6l-256 256zM128 256c0 35.4-28.6 64-64 64s-64-28.6-64-64v-128c0-106 86-192 192-192h512c106 0 192 86 192 192v128c0 35.4-28.6 64-64 64s-64-28.6-64-64v-128c0-35.4-28.6-64-64-64h-512c-35.4 0-64 28.6-64 64v128z" />
<glyph unicode="&#xe93e;" glyph-name="fa-arrow-up-from-ground-water" horiz-adv-x="1152" d="M576 256c35.4 0 64 28.6 64 64v421.4l50.8-50.8c25-25 65.6-25 90.6 0s25 65.6 0 90.6l-160 160c-25 25-65.6 25-90.6 0l-160-160c-25-25-25-65.6 0-90.6s65.6-25 90.6 0l50.6 50.8v-421.4c0-35.4 28.6-64 64-64zM539 116.2c-45-31-100-52.2-155-52.2-53.8 0-110.6 21.6-154.8 52.2v0c-23.8 17-56.2 15.6-78.4-3.4-28.8-23.8-65-42-101.2-50.4-34.4-8-55.8-42.4-47.8-76.8s42.4-55.8 76.8-47.8c49 11.4 89.8 33 116.4 50 58-31.2 123-51.8 189-51.8 63.8 0 121.2 19.8 160.8 37.8 11.6 5.4 22.2 10.6 31.2 15.4 9-4.8 19.4-10.2 31.2-15.4 39.6-18 97-37.8 160.8-37.8 66 0 131 20.6 189 51.6 26.8-16.8 67.4-38.6 116.4-50 34.4-8 68.8 13.4 76.8 47.8s-13.4 68.8-47.8 76.8c-36.2 8.4-72.4 26.6-101.2 50.4-22.2 18.8-54.6 20.2-78.4 3.4v0c-44-30.4-101-52-154.8-52-55 0-110 21.2-155 52.2-22.2 15.8-51.8 15.8-74 0zM384 576h-288c-53 0-96-43-96-96v-370c10.6 6.2 22.4 10.8 35 13.8 26.2 6.2 53.4 19.6 74.6 37.2 44.4 37.4 108.6 40.2 156.2 6.8 36-24.8 80.2-40.6 118.2-40.6v448.8zM1152 480c0 53-43 96-96 96h-288v-449c38 0 82.4 15.8 118.4 40.6 47.6 33.4 111.6 30.6 156.2-6.8 21.2-17.6 48.4-31.2 74.6-37.2 12.6-3 24.2-7.6 35-13.8v370.2z" />
<glyph unicode="&#xe93f;" glyph-name="fa-arrow-up-from-water-pump" horiz-adv-x="1152" d="M224 960c-53 0-96-43-96-96v-416h-32c-53 0-96-43-96-96v-192c0-16 4-31.2 10.8-44.4 7.6 3.4 15.6 6.2 24 8.2 26.2 6.2 53.4 19.6 74.6 37.2 44.4 37.4 108.6 40.2 156.2 6.8 36-24.8 80.2-40.6 118.4-40.6 42.2 0 84 17 118.4 40.6 44.2 31 103.2 31 147.4 0 36.8-25.4 79.2-40.6 118.4-40.6 38 0 82.4 15.8 118.4 40.6 47.6 33.4 111.6 30.6 156.2-6.8 21.2-17.6 48.4-31.2 74.6-37.2 8.4-2 16.4-4.8 24-8.2 6.6 13.2 10.6 28.4 10.6 44.4v192c0 53-43 96-96 96h-96v293.4l50.8-50.8c25-25 65.6-25 90.6 0s25 65.6 0 90.6l-160 160c-25 25-65.6 25-90.6 0l-160-160c-25-25-25-65.6 0-90.6s65.6-25 90.6 0l50.6 50.8v-293.4h-256v416c0 53-43 96-96 96h-256zM613 116.2c-22.2 15.8-51.8 15.8-74 0-45-31-100-52.2-155-52.2-53.8 0-110.6 21.6-154.8 52.2v0c-23.8 17-56.2 15.6-78.4-3.4-28.8-23.8-65-42-101.2-50.4-34.4-8-55.8-42.4-47.8-76.8s42.4-55.8 76.8-47.8c49 11.4 89.8 33 116.4 50 58-31.2 123-51.8 189-51.8 63.8 0 121.2 19.8 160.8 37.8 11.6 5.4 22.2 10.6 31.2 15.4 9-4.8 19.4-10.2 31.2-15.4 39.6-18 97-37.8 160.8-37.8 66 0 131 20.6 189 51.6 26.8-16.8 67.4-38.6 116.4-50 34.4-8 68.8 13.4 76.8 47.8s-13.4 68.8-47.8 76.8c-36.2 8.4-72.4 26.6-101.2 50.4-22.2 18.8-54.6 20.2-78.4 3.4v0c-44-30.4-101-52-154.8-52-55 0-110 21.2-155 52.2z" />
<glyph unicode="&#xe940;" glyph-name="fa-arrow-up-long" horiz-adv-x="768" d="M429.2 941.2c-25 25-65.6 25-90.6 0l-256-256c-25-25-25-65.6 0-90.6s65.6-25 90.6 0l146.8 146.8v-741.4c0-35.4 28.6-64 64-64s64 28.6 64 64v741.4l146.8-146.8c25-25 65.6-25 90.6 0s25 65.6 0 90.6l-256 256z" />
<glyph unicode="&#xe941;" glyph-name="fa-arrow-up-right-dots" horiz-adv-x="1152" d="M320 960c-35.4 0-64-28.6-64-64s28.6-64 64-64h101.4l-402.6-402.8c-25-25-25-65.6 0-90.6s65.6-25 90.6 0l402.6 402.8v-101.4c0-35.4 28.6-64 64-64s64 28.6 64 64v256c0 35.4-28.6 64-64 64h-256zM1152 800c0 53.019-42.981 96-96 96s-96-42.981-96-96v0c0-53.019 42.981-96 96-96s96 42.981 96 96v0zM896 544c0 53.019-42.981 96-96 96s-96-42.981-96-96v0c0-53.019 42.981-96 96-96s96 42.981 96 96v0zM800 192c53.019 0 96 42.981 96 96s-42.981 96-96 96v0c-53.019 0-96-42.981-96-96s42.981-96 96-96v0zM896 32c0 53.019-42.981 96-96 96s-96-42.981-96-96v0c0-53.019 42.981-96 96-96s96 42.981 96 96v0zM1152 32c0 53.019-42.981 96-96 96s-96-42.981-96-96v0c0-53.019 42.981-96 96-96s96 42.981 96 96v0zM544 192c53.019 0 96 42.981 96 96s-42.981 96-96 96v0c-53.019 0-96-42.981-96-96s42.981-96 96-96v0zM640 32c0 53.019-42.981 96-96 96s-96-42.981-96-96v0c0-53.019 42.981-96 96-96s96 42.981 96 96v0zM288-64c53.019 0 96 42.981 96 96s-42.981 96-96 96v0c-53.019 0-96-42.981-96-96s42.981-96 96-96v0zM1152 288c0 53.019-42.981 96-96 96s-96-42.981-96-96v0c0-53.019 42.981-96 96-96s96 42.981 96 96v0zM1056 448c53.019 0 96 42.981 96 96s-42.981 96-96 96v0c-53.019 0-96-42.981-96-96s42.981-96 96-96v0z" />
<glyph unicode="&#xe942;" glyph-name="fa-arrow-up-right-from-square" d="M640 960c-35.4 0-64-28.6-64-64s28.6-64 64-64h165.4l-402.6-402.8c-25-25-25-65.6 0-90.6s65.6-25 90.6 0l402.6 402.8v-165.4c0-35.4 28.6-64 64-64s64 28.6 64 64v320c0 35.4-28.6 64-64 64h-320zM160 896c-88.4 0-160-71.6-160-160v-640c0-88.4 71.6-160 160-160h640c88.4 0 160 71.6 160 160v224c0 35.4-28.6 64-64 64s-64-28.6-64-64v-224c0-17.6-14.4-32-32-32h-640c-17.6 0-32 14.4-32 32v640c0 17.6 14.4 32 32 32h224c35.4 0 64 28.6 64 64s-28.6 64-64 64h-224z" />
<glyph unicode="&#xe943;" glyph-name="fa-arrow-up-short-wide" horiz-adv-x="1152" d="M303.2 875.2c-12.2 13.2-29.2 20.8-47.2 20.8s-35-7.6-47.2-20.8l-176-192c-23.8-26-22.2-66.6 4-90.4s66.6-22.2 90.4 4l64.8 70.6v-603.4c0-35.4 28.6-64 64-64s64 28.6 64 64v603.4l64.8-70.8c23.8-26 64.4-27.8 90.4-4s27.8 64.4 4 90.4l-176 192zM640 896c-35.4 0-64-28.6-64-64s28.6-64 64-64h64c35.4 0 64 28.6 64 64s-28.6 64-64 64h-64zM640 640c-35.4 0-64-28.6-64-64s28.6-64 64-64h192c35.4 0 64 28.6 64 64s-28.6 64-64 64h-192zM640 384c-35.4 0-64-28.6-64-64s28.6-64 64-64h320c35.4 0 64 28.6 64 64s-28.6 64-64 64h-320zM640 128c-35.4 0-64-28.6-64-64s28.6-64 64-64h448c35.4 0 64 28.6 64 64s-28.6 64-64 64h-448z" />
<glyph unicode="&#xe944;" glyph-name="fa-arrow-up-wide-short" horiz-adv-x="1152" d="M303.2 875.2c-12.2 13.2-29.2 20.8-47.2 20.8s-35-7.6-47.2-20.8l-176-192c-23.8-26-22.2-66.6 4-90.4s66.6-22.2 90.4 4l64.8 70.6v-603.4c0-35.4 28.6-64 64-64s64 28.6 64 64v603.4l64.8-70.8c23.8-26 64.4-27.8 90.4-4s27.8 64.4 4 90.4l-176 192zM640 0h64c35.4 0 64 28.6 64 64s-28.6 64-64 64h-64c-35.4 0-64-28.6-64-64s28.6-64 64-64zM640 256h192c35.4 0 64 28.6 64 64s-28.6 64-64 64h-192c-35.4 0-64-28.6-64-64s28.6-64 64-64zM640 512h320c35.4 0 64 28.6 64 64s-28.6 64-64 64h-320c-35.4 0-64-28.6-64-64s28.6-64 64-64zM640 768h448c35.4 0 64 28.6 64 64s-28.6 64-64 64h-448c-35.4 0-64-28.6-64-64s28.6-64 64-64z" />
<glyph unicode="&#xe945;" glyph-name="fa-arrow-up-z-a" horiz-adv-x="1152" d="M367.2 875.2c-12.2 13.2-29.2 20.8-47.2 20.8s-35-7.6-47.2-20.8l-176-192c-23.8-26-22.2-66.6 4-90.4s66.6-22.2 90.4 4l64.8 70.6v-603.4c0-35.4 28.6-64 64-64s64 28.6 64 64v603.4l64.8-70.8c23.8-26 64.4-27.8 90.4-4s27.8 64.4 4 90.4l-176 192zM640 832c0-35.4 28.6-64 64-64h101.4l-146.8-146.8c-18.4-18.4-23.8-45.8-13.8-69.8s33.2-39.6 59.2-39.6h256c35.4 0 64 28.6 64 64s-28.6 64-64 64h-101.4l146.8 146.8c18.4 18.4 23.8 45.8 13.8 69.8s-33.2 39.6-59.2 39.6h-256c-35.4 0-64-28.6-64-64zM832 448c-24.2 0-46.4-13.6-57.2-35.4l-160-320c-15.8-31.6-3-70 28.6-85.8s70-3 85.8 28.6l14.4 28.6h176.8l14.4-28.6c15.8-31.6 54.2-44.4 85.8-28.6s44.4 54.2 28.6 85.8l-160 320c-10.8 21.8-33 35.4-57.2 35.4zM791.6 160l40.4 80.8 40.4-80.8h-80.8z" />
<glyph unicode="&#xe946;" glyph-name="fa-arrow-up" horiz-adv-x="768" d="M429.2 877.2c-25 25-65.6 25-90.6 0l-320-320c-25-25-25-65.6 0-90.6s65.6-25 90.6 0l210.8 211v-613.6c0-35.4 28.6-64 64-64s64 28.6 64 64v613.6l210.8-210.8c25-25 65.6-25 90.6 0s25 65.6 0 90.6l-320 320z" />
<glyph unicode="&#xe947;" glyph-name="fa-arrows-down-to-line" horiz-adv-x="1152" d="M1088 128h-1024c-35.4 0-64-28.6-64-64s28.6-64 64-64h1024c35.4 0 64 28.6 64 64s-28.6 64-64 64zM1133.2 402.8c25 25 25 65.6 0 90.6s-65.6 25-90.6 0l-82.6-82.8v421.4c0 35.4-28.6 64-64 64s-64-28.6-64-64v-421.4l-82.8 82.8c-25 25-65.6 25-90.6 0s-25-65.6 0-90.6l192-192c25-25 65.6-25 90.6 0l192 192zM493.2 493.4c-25 25-65.6 25-90.6 0l-82.6-82.8v421.4c0 35.4-28.6 64-64 64s-64-28.6-64-64v-421.4l-82.8 82.6c-25 25-65.6 25-90.6 0s-25-65.6 0-90.6l192-192c25-25 65.6-25 90.6 0l192 192c25 25 25 65.6 0 90.6z" />
<glyph unicode="&#xe948;" glyph-name="fa-arrows-down-to-people" horiz-adv-x="1280" d="M288 960c-26.6 0-48-21.4-48-48v-236.2l-46 46.2c-18.8 18.8-49.2 18.8-67.8 0s-18.8-49.2 0-67.8l128-128c18.8-18.8 49.2-18.8 67.8 0l128 128c18.8 18.8 18.8 49.2 0 67.8s-49.2 18.8-67.8 0l-46-46v236c0 26.6-21.4 48-48 48zM720 560c0 44.183-35.817 80-80 80s-80-35.817-80-80v0c0-44.183 35.817-80 80-80s80 35.817 80 80v0zM368 368c0 44.183-35.817 80-80 80s-80-35.817-80-80v0c0-44.183 35.817-80 80-80s80 35.817 80 80v0zM992 288c44.183 0 80 35.817 80 80s-35.817 80-80 80v0c-44.183 0-80-35.817-80-80s35.817-80 80-80v0zM400 77l53.8-99.8c12.6-23.4 41.6-32 65-19.6s32 41.6 19.6 65l-72.6 135c3.4 3.4 6.4 7.2 8.6 11.6l53.6 99.8v-109c0-35.4 28.6-64 64-64h96c35.4 0 64 28.6 64 64v109l53.8-99.8c2.4-4.4 5.2-8.2 8.6-11.6l-72.6-135c-12.6-23.4-3.8-52.4 19.6-65s52.4-3.8 65 19.6l53.6 99.8v-77c0-35.4 28.6-64 64-64h96c35.4 0 64 28.6 64 64v77l53.8-99.8c12.6-23.4 41.6-32 65-19.6s32 41.6 19.6 65l-75.8 140.6c-30.6 57-90.2 92.6-155 92.6h-39.2c-32.6 0-63.8-9-90.8-25.2l-67.2 124.6c-30.6 57-90.2 92.6-155 92.6h-39c-64.8 0-124.2-35.6-155-92.6l-67.2-124.6c-27 16.2-58.2 25.2-90.8 25.2h-39c-64.8 0-124.2-35.6-155-92.6l-75.6-140.4c-12.6-23.4-3.8-52.4 19.6-65s52.4-3.8 65 19.6l53.6 99.6v-77c0-35.4 28.6-64 64-64h96c35.4 0 64 28.6 64 64v77zM830 654l128-128c18.8-18.8 49.2-18.8 67.8 0l128 128c18.8 18.8 18.8 49.2 0 67.8s-49.2 18.8-67.8 0l-46-46v236.2c0 26.6-21.4 48-48 48s-48-21.4-48-48v-236.2l-46 46c-18.8 18.8-49.2 18.8-67.8 0s-18.8-49.2 0-67.8z" />
<glyph unicode="&#xe949;" glyph-name="fa-arrows-left-right-to-line" horiz-adv-x="1280" d="M64 832c35.4 0 64-28.6 64-64v-640c0-35.4-28.6-64-64-64s-64 28.6-64 64v640c0 35.4 28.6 64 64 64zM493.2 685.2c25-25 25-65.6 0-90.6l-82.6-82.6h459l-82.8 82.8c-25 25-25 65.6 0 90.6s65.6 25 90.6 0l192-192c25-25 25-65.6 0-90.6l-192-192c-25-25-65.6-25-90.6 0s-25 65.6 0 90.6l82.6 82.6h-459l82.8-82.8c25-25 25-65.6 0-90.6s-65.6-25-90.6 0l-192 192c-25 25-25 65.6 0 90.6l192 192c25 25 65.6 25 90.6 0zM1280 768v-640c0-35.4-28.6-64-64-64s-64 28.6-64 64v640c0 35.4 28.6 64 64 64s64-28.6 64-64z" />
<glyph unicode="&#xe94a;" glyph-name="fa-arrows-left-right" d="M813.2 210.8l192 192c25 25 25 65.6 0 90.6l-192 192c-25 25-65.6 25-90.6 0s-25-65.6 0-90.6l82.8-82.8h-587l82.8 82.8c25 25 25 65.6 0 90.6s-65.6 25-90.6 0l-192-192c-25-25-25-65.6 0-90.6l192-192c25-25 65.6-25 90.6 0s25 65.6 0 90.6l-82.6 82.6h587l-82.8-82.8c-25-25-25-65.6 0-90.6s65.6-25 90.6 0z" />
<glyph unicode="&#xe94b;" glyph-name="fa-arrows-rotate" d="M210.2 554.8c15.4 43.6 40.4 84.6 75.6 119.6 125 125 327.6 125 452.6 0l34.2-34.4h-68.6c-35.4 0-64-28.6-64-64s28.6-64 64-64h223c0 0 0 0 0 0h0.8c35.4 0 64 28.6 64 64v224c0 35.4-28.6 64-64 64s-64-28.6-64-64v-70.4l-35 35.2c-175 175-458.6 175-633.6 0-48.8-48.8-84-106.2-105.6-167.6-11.8-33.4 5.8-69.8 39-81.6s69.8 5.8 81.6 39zM78 381.4c-10-3-19.6-8.4-27.4-16.4-8-8-13.4-17.6-16.2-28-0.6-2.4-1.2-5-1.6-7.6-0.6-3.4-0.8-6.8-0.8-10.2v-223.2c0-35.4 28.6-64 64-64s64 28.6 64 64v70.2l35.2-35c175-174.8 458.6-174.8 633.4 0 48.8 48.8 84.2 106.2 105.8 167.4 11.8 33.4-5.8 69.8-39 81.6s-69.8-5.8-81.6-39c-15.4-43.6-40.4-84.6-75.6-119.6-125-125-327.6-125-452.6 0l-34.4 34.4h68.8c35.4 0 64 28.6 64 64s-28.6 64-64 64h-223.2c-3.2 0-6.4-0.2-9.6-0.6s-6.2-1-9.2-2z" />
<glyph unicode="&#xe94c;" glyph-name="fa-arrows-spin" d="M512 768c76.8 0 147.4-27 202.6-72.2l-65.2-65.2c-9.2-9.2-11.8-23-7-34.8s16.6-19.8 29.6-19.8h224c17.6 0 32 14.4 32 32v224c0 13-7.8 24.6-19.8 29.6s-25.8 2.2-34.8-7l-68-68c-78.6 68.2-181.2 109.4-293.4 109.4-21.8 0-43-1.6-64-4.6v-129.8c20.6 4.2 42 6.4 64 6.4zM264.2 650.6l65.2-65.2c9.2-9.2 23-11.8 34.8-7s19.8 16.6 19.8 29.6v224c0 17.6-14.4 32-32 32h-224c-13 0-24.6-7.8-29.6-19.8s-2.2-25.8 7-34.8l68-68c-68.2-78.6-109.4-181.2-109.4-293.4 0-21.8 1.6-43 4.6-64h129.8c-4.2 20.6-6.4 42-6.4 64 0 76.8 27 147.4 72.2 202.6zM955.4 512h-129.8c4.2-20.6 6.4-42 6.4-64 0-76.8-27-147.4-72.2-202.6l-65.2 65.2c-9.2 9.2-23 11.8-34.8 7s-19.8-16.6-19.8-29.6v-224c0-17.6 14.4-32 32-32h224c13 0 24.6 7.8 29.6 19.8s2.2 25.8-7 34.8l-68 68c68.2 78.6 109.4 181.2 109.4 293.4 0 21.8-1.6 43-4.6 64zM512 128c-76.8 0-147.4 27-202.6 72.2l65.2 65.2c9.2 9.2 11.8 23 7 34.8s-16.6 19.8-29.6 19.8h-224c-17.6 0-32-14.4-32-32v-224c0-13 7.8-24.6 19.8-29.6s25.8-2.2 34.8 7l68 68c78.6-68.2 181.2-109.4 293.4-109.4 21.8 0 43 1.6 64 4.6v129.8c-20.6-4.2-42-6.4-64-6.4z" />
<glyph unicode="&#xe94d;" glyph-name="fa-arrows-split-up-and-left" d="M493.2 658.8c-25-25-65.6-25-90.6 0s-25 65.6 0 90.6l192 192c25 25 65.6 25 90.6 0l192-192c25-25 25-65.6 0-90.6s-65.6-25-90.6 0l-82.6 82.6v-549.4c0-70.6 57.4-128 128-128h128c35.4 0 64-28.6 64-64s-28.6-64-64-64h-128c-141.4 0-256 114.6-256 256 0 70.6-57.4 128-128 128h-229.4l82.8-82.8c25-25 25-65.6 0-90.6s-65.6-25-90.6 0l-192 192c-25 25-25 65.6 0 90.6l192 192c25 25 65.6 25 90.6 0s25-65.6 0-90.6l-82.8-82.6h229.4c46.6 0 90.4-12.4 128-34.2v327.6l-82.8-82.8z" />
<glyph unicode="&#xe94e;" glyph-name="fa-arrows-to-circle" horiz-adv-x="1280" d="M18.8 941.2c25 25 65.4 25 90.4 0l210.8-210.6v37.4c0 35.4 28.6 64 64 64s64-28.6 64-64v-192c0-8.6-1.8-17-4.8-24.4-3.2-7.4-7.6-14.6-13.8-20.6l-0.2-0.2c-6.2-6-13.2-10.6-20.6-13.8-7.6-3.2-15.8-4.8-24.4-4.8h-192.2c-35.4 0-64 28.6-64 64s28.6 64 64 64h37.4l-210.6 210.6c-25 25-25 65.4 0 90.4zM512 448c0 70.692 57.308 128 128 128s128-57.308 128-128v0c0-70.692-57.308-128-128-128s-128 57.308-128 128v0zM229.4 256h-37.4c-35.4 0-64 28.6-64 64s28.6 64 64 64h192.2c17.6 0 33.4-7.2 45-18.6l0.2-0.2c6-6.2 10.6-13.2 13.8-20.6 3.2-7.6 4.8-15.8 4.8-24.4v-192c0-35.4-28.6-64-64-64s-64 28.6-64 64v37.2l-210.8-210.6c-25-25-65.6-25-90.6 0s-25 65.6 0 90.6l210.8 210.6zM832 768c0 35.4 28.6 64 64 64s64-28.6 64-64v-37.4l210.8 210.6c25 25 65.6 25 90.6 0s25-65.6 0-90.6l-210.8-210.6h37.4c35.4 0 64-28.6 64-64s-28.6-64-64-64h-192c-17.6 0-33.6 7.2-45.2 18.6l-0.2 0.2c-6 6.2-10.6 13.2-13.8 20.6s-4.8 15.6-4.8 24.4v192.2zM1050.6 256l210.6-210.8c25-25 25-65.6 0-90.6s-65.6-25-90.6 0l-210.6 210.8v-37.4c0-35.4-28.6-64-64-64s-64 28.6-64 64v192c0 0 0 0.2 0 0.2 0 8.6 1.8 16.8 4.8 24.4 3.2 7.6 7.8 14.6 13.8 20.8 11.6 11.6 27.4 18.6 45 18.8 0 0 0.2 0 0.2 0v0h192c35.4 0 64-28.6 64-64s-28.6-64-64-64h-37.2z" />
<glyph unicode="&#xe94f;" glyph-name="fa-arrows-to-dot" d="M512 960c35.4 0 64-28.6 64-64v-64h64c25.8 0 49.2-15.6 59.2-39.6s4.4-51.4-13.8-69.8l-128-128c-25-25-65.6-25-90.6 0l-128 128c-18.4 18.4-23.8 45.8-13.8 69.8s33.2 39.6 59.2 39.6h64v64c0 35.4 28.6 64 64 64zM338.8 173.2l128 128c25 25 65.6 25 90.6 0l128-128c18.4-18.4 23.8-45.8 13.8-69.8s-33.2-39.6-59.2-39.6h-64v-64c0-35.4-28.6-64-64-64s-64 28.6-64 64v64.2h-64c-25.8 0-49.2 15.6-59.2 39.6s-4.4 51.4 13.8 69.8zM64 512h64v64c0 25.8 15.6 49.2 39.6 59.2s51.4 4.4 69.8-13.8l128-128c25-25 25-65.6 0-90.6l-128-128c-18.4-18.4-45.8-23.8-69.8-13.8s-39.6 33.2-39.6 59.2v63.8h-64c-35.4 0-64 28.6-64 64s28.6 64 64 64zM658.8 402.8c-25 25-25 65.6 0 90.6l128 128c18.4 18.4 45.8 23.8 69.8 13.8s39.6-33.2 39.6-59.2v-64h64c35.4 0 64-28.6 64-64s-28.6-64-64-64h-64.2v-64c0-25.8-15.6-49.2-39.6-59.2s-51.4-4.4-69.8 13.8l-128 128zM512 512c35.346 0 64-28.654 64-64s-28.654-64-64-64v0c-35.346 0-64 28.654-64 64s28.654 64 64 64v0z" />
<glyph unicode="&#xe950;" glyph-name="fa-arrows-to-eye" horiz-adv-x="1280" d="M30 930c18.8 18.6 49.2 18.6 68 0l126-126v76c0 26.6 21.4 48 48 48s48-21.4 48-48v-192c0-26.6-21.4-48-48-48h-192c-26.6 0-48 21.4-48 48s21.4 48 48 48h76.2l-126.2 126c-18.6 18.8-18.6 49.2 0 68zM267 472.2c50.2 100.6 178.4 263.8 373 263.8s322.8-163.2 373-263.8c7.6-15.2 7.6-33 0-48.4-50.2-100.6-178.4-263.8-373-263.8s-322.8 163.2-373 263.8c-7.6 15.2-7.6 33 0 48.4zM640 320c70.692 0 128 57.308 128 128s-57.308 128-128 128v0c-70.692 0-128-57.308-128-128s57.308-128 128-128v0zM1182 930c18.8 18.8 49.2 18.8 67.8 0s18.8-49.2 0-67.8l-126-126h76.2c26.6 0 48-21.4 48-48s-21.4-48-48-48h-192c-26.6 0-48 21.4-48 48v191.8c0 26.6 21.4 48 48 48s48-21.4 48-48v-76.2l126 126zM30-34c-18.8 18.8-18.8 49.2 0 67.8l126 126h-76c-26.6 0-48 21.4-48 48s21.4 48 48 48h192c26.6 0 48-21.4 48-48v-192c0-26.6-21.4-48-48-48s-48 21.4-48 48v76.4l-126-126.2c-18.8-18.8-49.2-18.8-67.8 0zM1182-34l-126 126v-76c0-26.6-21.4-48-48-48s-48 21.4-48 48v192c0 26.6 21.4 48 48 48h192c26.6 0 48-21.4 48-48s-21.4-48-48-48h-76.2l126-126c18.8-18.8 18.8-49.2 0-67.8s-49.2-18.8-67.8 0z" />
<glyph unicode="&#xe951;" glyph-name="fa-arrows-turn-right" horiz-adv-x="896" d="M594.8 941.2c25 25 65.6 25 90.6 0l192-192c25-25 25-65.6 0-90.6l-192-192c-25-25-65.6-25-90.6 0s-25 65.6 0 90.6l82.6 82.8h-421.4c-70.6 0-128-57.4-128-128v-64c0-35.4-28.6-64-64-64s-64 28.6-64 64v64c0 141.4 114.6 256 256 256h421.4l-82.6 82.8c-25 25-25 65.6 0 90.6zM402.8 429.2c25 25 65.6 25 90.6 0l192-192c25-25 25-65.6 0-90.6l-192-192c-25-25-65.6-25-90.6 0s-25 65.6 0 90.6l82.6 82.8h-293.4c-35.4 0-64-28.6-64-64v-64c0-35.4-28.6-64-64-64s-64 28.6-64 64v64c0 106 86 192 192 192h293.4l-82.8 82.8c-25 25-25 65.6 0 90.6z" />
<glyph unicode="&#xe952;" glyph-name="fa-arrows-turn-to-dots" d="M498.8 909.2c25 25 65.6 25 90.6 0s25-65.6 0-90.6l-50.8-50.6h293.4c106 0 192-86 192-192v-64c0-35.4-28.6-64-64-64s-64 28.6-64 64v64c0 35.4-28.6 64-64 64h-293.4l50.8-50.8c25-25 25-65.6 0-90.6s-65.6-25-90.6 0l-160 160c-25 25-25 65.6 0 90.6l160 160zM525.4 397.2l160-160c25-25 25-65.6 0-90.6l-160-160c-25-25-65.6-25-90.6 0s-25 65.6 0 90.6l50.6 50.8h-293.4c-35.4 0-64-28.6-64-64v-64c0-35.4-28.6-64-64-64s-64 28.6-64 64v64c0 106 86 192 192 192h293.4l-50.8 50.8c-25 25-25 65.6 0 90.6s65.6 25 90.6 0zM768 192c0 70.692 57.308 128 128 128s128-57.308 128-128v0c0-70.692-57.308-128-128-128s-128 57.308-128 128v0zM128 576c-70.692 0-128 57.308-128 128s57.308 128 128 128v0c70.692 0 128-57.308 128-128s-57.308-128-128-128v0z" />
<glyph unicode="&#xe953;" glyph-name="fa-arrows-up-down-left-right" d="M557.2 941.2c-25 25-65.6 25-90.6 0l-128-128c-25-25-25-65.6 0-90.6s65.6-25 90.6 0l18.8 18.8v-229.4h-229.4l18.8 18.8c25 25 25 65.6 0 90.6s-65.6 25-90.6 0l-128-128c-25-25-25-65.6 0-90.6l128-128c25-25 65.6-25 90.6 0s25 65.6 0 90.6l-18.8 18.8h229.4v-229.6l-18.8 18.8c-25 25-65.6 25-90.6 0s-25-65.6 0-90.6l128-128c25-25 65.6-25 90.6 0l128 128c25 25 25 65.6 0 90.6s-65.6 25-90.6 0l-18.8-18.8v229.4h229.6l-18.8-18.8c-25-25-25-65.6 0-90.6s65.6-25 90.6 0l128 128c25 25 25 65.6 0 90.6l-128 128c-25 25-65.6 25-90.6 0s-25-65.6 0-90.6l18.8-18.8h-229.4v229.6l18.8-18.8c25-25 65.6-25 90.6 0s25 65.6 0 90.6l-128 128z" />
<glyph unicode="&#xe954;" glyph-name="fa-arrows-up-down" horiz-adv-x="640" d="M365.2 941.2c-25 25-65.6 25-90.6 0l-192-192c-25-25-25-65.6 0-90.6s65.6-25 90.6 0l82.8 82.8v-586.8l-82.8 82.6c-25 25-65.6 25-90.6 0s-25-65.6 0-90.6l192-192c25-25 65.6-25 90.6 0l192 192c25 25 25 65.6 0 90.6s-65.6 25-90.6 0l-82.6-82.6v586.8l82.8-82.8c25-25 65.6-25 90.6 0s25 65.6 0 90.6l-192 192z" />
<glyph unicode="&#xe955;" glyph-name="fa-arrows-up-to-line" horiz-adv-x="1152" d="M64 768h1024c35.4 0 64 28.6 64 64s-28.6 64-64 64h-1024c-35.4 0-64-28.6-64-64s28.6-64 64-64zM18.8 493.2c-25-25-25-65.6 0-90.6s65.6-25 90.6 0l82.6 82.8v-421.4c0-35.4 28.6-64 64-64s64 28.6 64 64v421.4l82.8-82.8c25-25 65.6-25 90.6 0s25 65.6 0 90.6l-192 192c-25 25-65.6 25-90.6 0l-192-192zM658.8 402.6c25-25 65.6-25 90.6 0l82.6 82.8v-421.4c0-35.4 28.6-64 64-64s64 28.6 64 64v421.4l82.8-82.8c25-25 65.6-25 90.6 0s25 65.6 0 90.6l-192 192c-25 25-65.6 25-90.6 0l-192-192c-25-25-25-65.6 0-90.6z" />
<glyph unicode="&#xe956;" glyph-name="fa-asterisk" horiz-adv-x="768" d="M384 896c35.4 0 64-28.6 64-64v-271l223 133.8c30.4 18.2 69.6 8.4 87.8-22s8.4-69.6-22-87.8l-228.4-137 228.6-137.2c30.4-18.2 40.2-57.4 22-87.8s-57.4-40.2-87.8-22l-223.2 134v-271c0-35.4-28.6-64-64-64s-64 28.6-64 64v271l-223-133.8c-30.4-18.2-69.6-8.4-87.8 22s-8.4 69.6 22 87.8l228.4 137-228.6 137.2c-30.4 18.2-40.2 57.4-22 87.8s57.4 40.2 87.8 22l223.2-134v271c0 35.4 28.6 64 64 64z" />
<glyph unicode="&#xe957;" glyph-name="fa-at" d="M512 832c-212 0-384-172-384-384s172-384 384-384c35.4 0 64-28.6 64-64s-28.6-64-64-64c-282.8 0-512 229.2-512 512s229.2 512 512 512 512-229.2 512-512v-64c0-106-86-192-192-192-58.6 0-111.2 26.4-146.4 67.8-45.6-42-106.6-67.8-173.6-67.8-141.4 0-256 114.6-256 256s114.6 256 256 256c55.8 0 107.4-17.8 149.4-48.2 11.4 10 26.2 16.2 42.6 16.2 35.4 0 64-28.6 64-64v-224c0-35.4 28.6-64 64-64s64 28.6 64 64v64c0 212-172 384-384 384zM640 448c0 70.692-57.308 128-128 128s-128-57.308-128-128v0c0-70.692 57.308-128 128-128s128 57.308 128 128v0z" />
<glyph unicode="&#xe958;" glyph-name="fa-atom" d="M512 162.4c-23.6-10.2-46.8-19.4-69.8-27 33.4-67.6 62-71.4 69.8-71.4s36.2 3.8 69.8 71.4c-22.8 7.8-46.2 16.8-69.8 27zM892 448c66-90.4 88.6-181.8 47.2-256-40.4-72.6-125-98.6-230.4-86.4-44-104.2-111.2-169.6-196.8-169.6s-152.8 65.4-196.8 169.6c-105.4-12.2-190 13.6-230.4 86.4-41.4 74.2-18.8 165.6 47.2 256-66 90.4-88.6 181.8-47.2 256 40.4 72.6 125 98.6 230.4 86.4 44 104.2 111.2 169.6 196.8 169.6s152.8-65.4 196.8-169.6c105.4 12.2 190-13.6 230.4-86.4 41.4-74.2 18.8-165.6-47.2-256zM760.4 313.2c-3.4-28.4-7.8-56-13.4-82.4 63.6-2.8 77.2 17.4 80.4 23.4 4.6 8.4 14 35.8-23.8 96.2-13.6-12.6-28-25-43.2-37.2zM747 665c5.6-26.2 10-53.8 13.4-82.4 15.2-12.2 29.6-24.6 43.2-37.2 37.8 60.4 28.4 88 23.8 96.2-3.2 5.8-16.8 26-80.4 23.4zM581.8 760.6c-33.6 67.6-62 71.4-69.8 71.4s-36.2-3.8-69.8-71.4c22.8-7.8 46.2-16.8 69.8-27 23.6 10.2 46.8 19.4 69.8 27zM263.8 582.8c3.4 28.6 7.8 56 13.4 82.4-63.6 2.8-77.2-17.4-80.4-23.4-4.6-8.4-14-35.8 23.8-96.2 13.6 12.6 28 25 43.2 37.2zM220.4 350.4c-37.6-60.4-28.4-87.8-23.8-96.2 3.2-5.8 16.8-26 80.4-23.4-5.6 26.2-10 53.8-13.4 82.4-15.2 12.2-29.6 24.6-43.2 37.2zM672 448c0 88.366-71.634 160-160 160s-160-71.634-160-160v0c0-88.366 71.634-160 160-160s160 71.634 160 160v0zM512 512c35.346 0 64-28.654 64-64s-28.654-64-64-64v0c-35.346 0-64 28.654-64 64s28.654 64 64 64v0z" />
<glyph unicode="&#xe959;" glyph-name="fa-audio-description" horiz-adv-x="1152" d="M128 896c-70.6 0-128-57.4-128-128v-640c0-70.6 57.4-128 128-128h896c70.6 0 128 57.4 128 128v640c0 70.6-57.4 128-128 128h-896zM427 613.4l144-288c11.8-23.8 2.2-52.6-21.4-64.4s-52.6-2.2-64.4 21.4l-18.8 37.8h-164.6l-18.8-37.8c-11.8-23.8-40.6-33.4-64.4-21.4s-33.4 40.6-21.4 64.4l144 288c8.2 16.2 24.8 26.6 43 26.6s34.8-10.2 43-26.6zM426.2 400.2l-42.2 84.4-42.2-84.4h84.4zM608 592c0 26.6 21.4 48 48 48h112c106 0 192-86 192-192s-86-192-192-192h-112c-26.6 0-48 21.4-48 48v288zM704 544v-192h64c53 0 96 43 96 96s-43 96-96 96h-64z" />
<glyph unicode="&#xe95a;" glyph-name="fa-austral-sign" horiz-adv-x="896" d="M507 856.6c-9.8 23.8-33.2 39.4-59 39.4s-49.2-15.6-59-39.4l-143.6-344.6h-181.4c-35.4 0-64-28.6-64-64s28.6-64 64-64h128l-26.6-64h-101.4c-35.4 0-64-28.6-64-64s28.6-64 64-64h48l-43-103.4c-13.6-32.6 1.8-70 34.4-83.6s70 1.8 83.6 34.4l63.6 152.6h394.8l63.6-152.6c13.6-32.6 51-48 83.6-34.4s48 51 34.4 83.6l-43 103.4h48c35.4 0 64 28.6 64 64s-28.6 64-64 64h-101.4l-26.6 64h128c35.4 0 64 28.6 64 64s-28.6 64-64 64h-181.4l-143.6 344.6zM512 512h-128l64 153.6 64-153.6zM330.6 384h234.8l26.6-64h-288l26.6 64z" />
<glyph unicode="&#xe95b;" glyph-name="fa-award" horiz-adv-x="768" d="M347.6 949c22 14.6 50.8 14.6 72.8 0l35.6-23.4c12-7.8 26-11.6 40.2-10.8l42.6 2.6c26.4 1.6 51.2-12.8 63-36.4l19.2-38.2c6.4-12.8 16.8-23 29.4-29.4l38.6-19.4c23.6-11.8 38-36.6 36.4-63l-2.6-42.6c-0.8-14.2 3-28.4 10.8-40.2l23.6-35.6c14.6-22 14.6-50.8 0-72.8l-23.6-35.8c-7.8-12-11.6-26-10.8-40.2l2.6-42.6c1.6-26.4-12.8-51.2-36.4-63l-38.2-19.2c-12.8-6.4-23-16.8-29.4-29.4l-19.4-38.6c-11.8-23.6-36.6-38-63-36.4l-42.6 2.6c-14.2 0.8-28.4-3-40.2-10.8l-35.6-23.6c-22-14.6-50.8-14.6-72.8 0l-35.8 23.6c-12 7.8-26 11.6-40.2 10.8l-42.6-2.6c-26.4-1.6-51.2 12.8-63 36.4l-19.2 38.2c-6.4 12.8-16.8 23-29.4 29.4l-38.6 19.4c-23.6 11.8-38 36.6-36.4 63l2.6 42.6c0.8 14.2-3 28.4-10.8 40.2l-23.4 35.8c-14.6 22-14.6 50.8 0 72.8l23.4 35.6c7.8 12 11.6 26 10.8 40.2l-2.6 42.6c-1.6 26.4 12.8 51.2 36.4 63l38.2 19.2c12.8 6.6 23.2 17 29.6 29.8l19.2 38.2c11.8 23.6 36.6 38 63 36.4l42.6-2.6c14.2-0.8 28.4 3 40.2 10.8l35.8 23.4zM544 576c0 88.366-71.634 160-160 160s-160-71.634-160-160v0c0-88.366 71.634-160 160-160s160 71.634 160 160v0zM2.6 76.4l86.2 205c0.4-0.2 0.6-0.4 0.8-0.8l19.2-38.2c23.4-46.4 72-74.6 124-71.6l42.6 2.6c0.4 0 1 0 1.4-0.4l35.6-23.6c10.2-6.6 21-11.8 32.2-15.4l-75.2-178.6c-4.6-11-14.8-18.4-26.6-19.4s-23.2 4.4-29.6 14.4l-64.4 98.6-112.2-16.6c-11.4-1.6-22.8 3-30 12s-8.6 21.4-4.2 32zM498.6-44.4l-75.2 178.4c11.2 3.6 22 8.6 32.2 15.4l35.6 23.6c0.4 0.2 0.8 0.4 1.4 0.4l42.6-2.6c52-3 100.6 25.2 124 71.6l19.2 38.2c0.2 0.4 0.4 0.6 0.8 0.8l86.4-205c4.4-10.6 2.8-22.8-4.2-32s-18.6-13.8-30-12l-112.2 16.6-64.4-98.4c-6.4-10-17.8-15.4-29.6-14.4s-22 8.6-26.6 19.4z" />
<glyph unicode="&#xe95c;" glyph-name="fa-b" horiz-adv-x="640" d="M128 896c-70.6 0-128-57.4-128-128v-640c0-70.6 57.4-128 128-128h256c141.4 0 256 114.6 256 256 0 93-49.6 174.6-124 219.4 37.4 44.6 60 102 60 164.6 0 141.4-114.6 256-256 256h-192zM320 512h-192v256h192c70.6 0 128-57.4 128-128s-57.4-128-128-128zM128 384h256c70.6 0 128-57.4 128-128s-57.4-128-128-128h-256v256z" />
<glyph unicode="&#xe95d;" glyph-name="fa-baby-carriage" d="M512 576h-511.8c5.2 148.2 82.4 278.2 197.8 355.8 26.6 17.8 61.6 8.6 79.8-17.6l234.2-338.2zM768 640c0 70.6 57.4 128 128 128h64c35.4 0 64-28.6 64-64s-28.6-64-64-64h-64v-128c0-50.4-11.6-100.4-34-147s-55.6-89-97.2-124.6-91-64-145.4-83.2-112.6-29.2-171.4-29.2-117 10-171.4 29.2-103.8 47.6-145.4 83.2-74.6 78-97.2 124.6-34 96.6-34 147h768v128zM160 128c53.019 0 96-42.981 96-96s-42.981-96-96-96v0c-53.019 0-96 42.981-96 96s42.981 96 96 96v0zM640 32c0 53.019 42.981 96 96 96s96-42.981 96-96v0c0-53.019-42.981-96-96-96s-96 42.981-96 96v0z" />
<glyph unicode="&#xe95e;" glyph-name="fa-baby" horiz-adv-x="896" d="M304 784c0 79.529 64.471 144 144 144s144-64.471 144-144v0c0-79.529-64.471-144-144-144s-144 64.471-144 144v0zM79.4 671c26 35.8 76 43.6 111.8 17.6l72.4-52.6c53.6-39 118.2-60 184.4-60s130.8 21 184.4 60l72.4 52.8c35.8 26 85.8 18 111.8-17.6s18-85.8-17.6-111.8l-72.4-52.8c-27.2-19.8-56.2-36.4-86.6-50v-72.6h-384v72.6c-30.4 13.4-59.4 30.2-86.6 50l-72.4 52.8c-35.8 26-43.6 76-17.6 111.8zM259 301.4l121.2-106-52-74.4 48.6-48.6c31.2-31.2 31.2-81.8 0-113.2s-81.8-31.2-113.2 0l-96 96c-27.6 27.6-31.4 70.8-9.2 102.6l100.4 143.6zM516 195.4l121.2 106 100.4-143.6c22.2-31.8 18.4-75-9-102.4l-96-96c-31.2-31.2-81.8-31.2-113.2 0s-31.2 81.8 0 113.2l48.6 48.6-52 74.4z" />
<glyph unicode="&#xe95f;" glyph-name="fa-backward-fast" d="M987.2 70c-22.4-10.6-49-7.2-68.2 8.8l-343 285.8v-236.6c0-24.8-14.4-47.4-36.8-58s-49-7.2-68.2 8.8l-343 285.8v-236.6c0-35.4-28.6-64-64-64s-64 28.6-64 64v640c0 35.4 28.6 64 64 64s64-28.6 64-64v-236.6l343 285.8c19 15.8 45.6 19.4 68.2 8.8s36.8-33.2 36.8-58v-236.6l343 285.8c19 15.8 45.6 19.4 68.2 8.8s36.8-33.2 36.8-58v-640c0-24.8-14.4-47.4-36.8-58z" />
<glyph unicode="&#xe960;" glyph-name="fa-backward-step" horiz-adv-x="640" d="M535 78.8c19-15.8 45.6-19.4 68.2-8.8s36.8 33.2 36.8 58v640c0 24.8-14.4 47.4-36.8 58s-49 7.2-68.2-8.8l-407-339.2v290c0 35.4-28.6 64-64 64s-64-28.6-64-64v-640c0-35.4 28.6-64 64-64s64 28.6 64 64v290l23-19.2 384-320z" />
<glyph unicode="&#xe961;" glyph-name="fa-backward" d="M919 78.8c19-15.8 45.6-19.4 68.2-8.8s36.8 33.2 36.8 58v640c0 24.8-14.4 47.4-36.8 58s-49 7.2-68.2-8.8l-343-285.8v-166.8l343-285.8zM512 256v512c0 24.8-14.4 47.4-36.8 58s-49 7.2-68.2-8.8l-384-320c-14.6-12.2-23-30.2-23-49.2s8.4-37 23-49.2l384-320c19-15.8 45.6-19.4 68.2-8.8s36.8 33.2 36.8 58v128z" />
<glyph unicode="&#xe962;" glyph-name="fa-bacon" horiz-adv-x="1152" d="M878.4 957.6c22.4 6.4 46.4 0.2 62.8-16.2l94.8-94.8-53-15.8c-116-33.2-196.2-79.2-259.2-134.8-62.4-55-106.4-118.2-150.2-181.8l-4.6-6.6c-85.8-125-179-260.8-423.4-383l-69.8-35-57 57.2c-14.6 14.6-21.2 35.2-18 55.6s16.2 37.8 34.6 47c236.8 118.2 326.4 248.6 411.2 372l4.6 6.8c43.6 63.6 89.8 129.8 155.4 187.8 66.8 59 151.6 107.2 271.8 141.6zM123.6 42l50.8 25.4c259 129.4 359.8 276.2 447.6 404l4.4 6.6c44.2 64.2 84.2 121 139.8 170.2 55 48.6 126.8 90.4 234.6 121.2v0l0.4 0.2 86.2 25.8 46-46c16-16 22.4-39.4 16.6-61.4s-22.6-39.2-44.4-45.4c-103.8-29.6-171.2-69.4-222.2-114.4-52.2-46-90.2-99.8-134.6-164.2l-4.4-6.4c-88.8-129.4-193.4-281.6-459.8-414.8-24.6-12.4-54.4-7.4-73.8 12l-87.2 87.2z" />
<glyph unicode="&#xe963;" glyph-name="fa-bacteria" horiz-adv-x="1280" d="M609.8 958.6c-19.2 5.4-39-5.6-44.6-24.8l-8.6-30.4c-16.6 1.2-33.6 0-50.4-3.8-14.6-3.4-28.6-7-42.2-11l-11 25.4c-7.8 18.2-29 26.8-47.2 19s-26.8-29-19-47.2l8.8-20.8c-33.2-13.4-63.4-28.8-90.8-45.6l-10.8 16.6c-11 16.6-33.4 21-50 10s-21-33.4-10-50l12-18c-27.4-22-51-45.6-71.6-69.8l-20 16c-15.6 12.4-38.2 10-50.6-5.6s-10-38.2 5.6-50.6l22.4-18c-3.6-5.6-7-11.4-10.2-17-13.2-22.8-23.6-45.2-32-66l-16 6.4c-18.4 7.4-39.4-1.6-46.8-20s1.6-39.4 20-46.8l20.8-8.4c-0.4-1.6-0.8-3-1-4.6-4.4-18.6-6.8-34.6-8.2-46.8-0.8-6.2-1.2-11.4-1.6-15.6-0.2-2.2-0.2-4-0.4-5.6l-0.2-2.2v-1.6c0 0 0-0.2 58.2-2h-0.2l-58.2 1.6c-0.2-6.2 0-12.2 0.4-18.2l-30.4-8.6c-19-5.4-30-25.4-24.6-44.4s25.4-30.2 44.6-24.8l31.2 9c15.2-27.2 37.8-50 65.2-65.2l-9-31.2c-5.4-19.2 5.6-39 24.8-44.6s39 5.6 44.6 24.8l8.6 30.4c2.4-0.2 4.8-0.4 7.2-0.4 31.2-1 60.6 6.6 86 20.4l18-18c14-14 36.8-14 51 0s14 36.8 0 51l-14.4 14.4c18.6 25.2 30.4 55.6 32.6 89l14.2-6c18.2-7.8 39.4 0.6 47.2 19s-0.6 39.4-19 47.2l-17.2 7.4c12.8 19.8 34.6 44.8 73.8 66.6l2.6-8.8c5.4-19.2 25.4-30.2 44.6-24.8s30.2 25.4 24.8 44.6l-4.6 16.2c7.6 2.2 15.4 4.2 23.8 6.2 23.2 5.4 44.2 15.4 62.2 28.8l14.4-14.4c14-14 36.8-14 51 0s14 36.8 0 51l-18 18c15.2 27.8 22.6 60.2 20.2 93.2l30.4 8.6c19.2 5.4 30.2 25.4 24.8 44.6s-25.8 29.6-45 24.2l-31.2-9c-15.4 27.8-38.2 50.2-65.2 65.2l9 31.2c5.4 19.2-5.6 39-24.8 44.6zM224 416l-96 3c23.4-0.8 54.6-1.8 96-3.2zM256 576c35.346 0 64-28.654 64-64s-28.654-64-64-64v0c-35.346 0-64 28.654-64 64s28.654 64 64 64v0zM384 672c0 17.673 14.327 32 32 32s32-14.327 32-32v0c0-17.673-14.327-32-32-32s-32 14.327-32 32v0zM645.4-18c-5.4-19.2 5.6-39 24.8-44.6s39 5.6 44.4 24.8l8.6 30.4c16.6-1.2 33.6 0 50.4 3.8 14.6 3.4 28.6 7 42.2 11l11-25.4c7.8-18.2 29-26.8 47.2-19s26.8 29 19 47.2l-8.8 20.8c33.2 13.4 63.4 28.8 90.8 45.6l11-16.6c11-16.6 33.4-21 50-10s21 33.4 10 50l-12 18c27.4 22 51 45.6 71.6 69.8l20-16c15.6-12.4 38.2-10 50.6 5.6s10 38.2-5.6 50.6l-22.4 18c3.6 5.6 7 11.4 10.2 17 13.2 22.8 23.6 45.2 32 66l16-6.4c18.4-7.4 39.4 1.6 46.8 20s-1.6 39.4-20 46.8l-20.8 8.4c0.4 1.6 0.8 3 1 4.6 4.4 18.6 6.8 34.6 8.2 46.8 0.8 6.2 1.2 11.4 1.6 15.6 0.2 2.2 0.2 4 0.4 5.6l0.2 2.2v1.6c0 0 0 0.2-58.2 2h0.2l58.2-1.8c0.2 6.2 0 12.2-0.4 18.2l30.4 8.6c19.2 5.4 30.2 25.4 24.8 44.6s-25.4 30.2-44.6 24.8l-31.2-9c-15.2 27.2-37.8 50-65.2 65.2l9 31.2c5.4 19.2-5.6 39-24.8 44.6s-39-5.6-44.6-24.8l-8.6-30.4c-2.4 0.2-4.8 0.4-7.2 0.4-31.2 1-60.6-6.6-86-20.4l-18 18c-14 14-36.8 14-51 0s-14-36.8 0-51l14.4-14.4c-18.6-25.2-30.4-55.6-32.6-89l-14.2 6c-18.2 7.8-39.4-0.6-47.2-19s0.6-39.4 19-47.2l17.2-7.4c-12.8-19.8-34.6-44.8-73.8-66.6l-2.6 8.8c-5.4 19.2-25.4 30.2-44.6 24.8s-30.2-25.4-24.8-44.6l4.6-16.2c-7.6-2.2-15.4-4.2-23.8-6.2-23.2-5.4-44.2-15.4-62.2-28.8l-14.4 14.4c-14 14-36.8 14-51 0s-14-36.8 0-51l18-18c-15.2-27.8-22.6-60.2-20.2-93.2l-30.4-8.6c-19.2-5.4-30.2-25.4-24.8-44.4s25.4-30.2 44.6-24.8l31.2 9c15.4-27.8 38.2-50.2 65.2-65.2l-8.8-30.8zM1152 477v0c-23.4 0.8-54.6 1.8-96 3.2l96-3zM896 192c0-35.346-28.654-64-64-64s-64 28.654-64 64v0c0 35.346 28.654 64 64 64s64-28.654 64-64v0z" />
<glyph unicode="&#xe964;" glyph-name="fa-bacterium" d="M846.2 898.8c7.2 25.4-7.4 52-33 59.4s-52-7.4-59.4-33l-8.4-29.4c-19.6 0.8-39.8-1-59.8-5.6-24.2-5.6-47.4-11.8-69.8-18.8l-11.8 27.4c-10.4 24.4-38.6 35.6-63 25.2s-35.6-38.6-25.2-63l9.8-22.6c-44-18.8-84-40.2-120.4-63.6l-13.2 19.8c-14.8 22-44.6 28-66.6 13.4s-28-44.6-13.4-66.6l15.6-23.2c-36-30-67.4-61.6-94.6-94.2l-27 21.4c-20.8 16.6-51 13.2-67.4-7.4s-13.2-51 7.4-67.4l30-24c-4.2-6.4-8.2-13-12-19.4-18.8-31.4-34-62-46.4-90.6l-19.8 7.8c-24.6 9.8-52.6-2.2-62.4-26.8s2.2-52.6 26.8-62.4l23.2-9.2c-0.6-2.2-1.2-4.2-1.8-6.2-7-25-11.4-46.4-14.2-62.6-1.4-8.2-2.4-15-3.2-20.6-0.4-2.8-0.6-5.2-0.8-7.2l-0.2-2.8-0.2-1.2v-0.8c0 0 0-0.2 78.4-7.4v0l-78.4 7.2c-1-10-1.2-20-0.8-29.8l-29.4-8.4c-25.4-7.4-40.2-33.8-33-59.4s33.8-40.2 59.4-33l27.6 7.8c21.2-41.4 55.2-75.6 97-97l-7.8-27.4c-7.2-25.4 7.4-52 33-59.4s52 7.4 59.4 33l8.4 29.4c47.6-2 92.6 11 130.2 35.2l21-21.4c18.8-18.8 49.2-18.8 67.8 0s18.8 49.2 0 67.8l-21.2 21.2c18.2 28.2 30.2 61 34 96.6l0.2 1.6c0.6 3.4 2 10.2 4.6 19.6l0.4 1.6 25.2-10.8c24.4-10.4 52.6 0.8 63 25.2s-0.8 52.6-25.2 63l-22.6 9.6c19.8 29.8 49.8 63.2 97.2 92l4.2-15c7.2-25.4 33.8-40.2 59.4-33s40.2 33.8 33 59.4l-8 28.8c13.8 4.4 28.6 8.6 44.4 12.2 25.8 6 49.4 16 70.4 29.6l21.2-21.4c18.8-18.8 49.2-18.8 67.8 0s18.8 49.2 0 67.8l-21.2 21.2c24.4 38 37.2 83.2 35.2 130.2l29.4 8.4c25.4 7.2 40.2 33.8 33 59.4s-33.8 40.2-59.4 33l-27.4-7.8c-21.6 42.4-56 76-97 97l7.8 27.6zM184.2 233.4v0 0zM224 320c0 53.019 42.981 96 96 96s96-42.981 96-96v0c0-53.019-42.981-96-96-96s-96 42.981-96 96v0zM480 592c26.51 0 48-21.49 48-48s-21.49-48-48-48v0c-26.51 0-48 21.49-48 48s21.49 48 48 48v0z" />
<glyph unicode="&#xe965;" glyph-name="fa-bag-shopping" horiz-adv-x="896" d="M320 736c0 70.6 57.4 128 128 128s128-57.4 128-128v-96h-256v96zM224 640h-128c-53 0-96-43-96-96v-416c0-106 86-192 192-192h512c106 0 192 86 192 192v416c0 53-43 96-96 96h-128v96c0 123.8-100.2 224-224 224s-224-100.2-224-224v-96zM272 544c26.51 0 48-21.49 48-48s-21.49-48-48-48v0c-26.51 0-48 21.49-48 48s21.49 48 48 48v0zM576 496c0 26.51 21.49 48 48 48s48-21.49 48-48v0c0-26.51-21.49-48-48-48s-48 21.49-48 48v0z" />
<glyph unicode="&#xe966;" glyph-name="fa-bahai" horiz-adv-x="1152" d="M576 960c29 0 54.4-19.4 61.8-47.6l47.8-179.2 151.8 106.6c23.8 16.6 55.6 15.2 78-3.4s29.2-49.8 16.8-76.2l-78.6-168 184.8-16c28.8-2.4 52.4-24 57.6-52.6s-9.8-57-36-69.2l-168.2-78.2 131.4-131c20.6-20.4 24.8-52.2 10.2-77.4s-44-37.4-72-29.8l-179.4 48.4 16.4-184.8c2.6-28.8-14.6-55.8-41.8-65.8s-57.8-0.2-74.4 23.4l-106.2 152-106.2-152c-16.6-23.8-47.2-33.4-74.4-23.4s-44.4 37-41.8 65.8l16.4 184.8-179.2-48.2c-28-7.6-57.6 4.6-72 29.8s-10.4 56.8 10.2 77.4l131.4 131-168.4 78.2c-26.2 12.2-41 40.6-36 69.2s28.6 50.2 57.6 52.6l184.8 16-78.6 168c-12.2 26.2-5.4 57.6 16.8 76.2s54.2 20 78 3.4l151.8-106.6 47.8 179.2c7.4 28 32.8 47.4 61.8 47.4zM576 647.6l-9.6-36c-5.4-20.2-20.4-36.4-40-43.6s-41.6-4.2-58.6 7.8l-30.4 21.4 15.8-33.6c8.8-19 8-41-2.6-59.2s-29-30-50-31.8l-37-3.2 33.6-15.6c19-8.8 32.4-26.4 36-47s-3-41.6-17.8-56.4l-26.4-26.2 35.8 9.6c20.2 5.4 41.8 0.6 57.8-12.8s24.4-33.8 22.6-54.6l-3.2-37 21.2 30.4c12 17.2 31.6 27.4 52.4 27.4s40.4-10.2 52.4-27.4l21.2-30.4-3.2 37c-1.8 20.8 6.6 41.2 22.6 54.6s37.6 18.2 57.8 12.8l35.8-9.6-26.4 26.2c-14.8 14.8-21.4 35.8-17.8 56.4s17 38.2 36 47l33.6 15.6-37 3.2c-20.8 1.8-39.4 13.6-50 31.8s-11.4 40.2-2.6 59.2l15.8 33.6-30.4-21.4c-17.2-12-39-15-58.6-7.8s-34.6 23.4-40 43.6l-9.6 36z" />
<glyph unicode="&#xe967;" glyph-name="fa-baht-sign" horiz-adv-x="640" d="M288 960c-35.4 0-64-28.6-64-64v-64h-148.8c-41.6 0-75.2-33.6-75.2-75.2v-609.4c0-46 37.4-83.4 83.4-83.4h140.6v-64c0-35.4 28.6-64 64-64s64 28.6 64 64v64h64c123.8 0 224 100.2 224 224 0 80.2-42.2 150.6-105.4 190.2 26 36.6 41.4 81.4 41.4 129.8 0 123.8-100.2 224-224 224v64c0 35.4-28.6 64-64 64zM224 704v-192h-96v192h96zM352 512v192c53 0 96-43 96-96s-43-96-96-96zM224 384v-192h-96v192h96zM352 192v192h64c53 0 96-43 96-96s-43-96-96-96h-64z" />
<glyph unicode="&#xe968;" glyph-name="fa-ban-smoking" d="M199 670.4l535.4-535.4c-62.6-44.8-139.4-71-222.4-71-212 0-384 172-384 384 0 83 26.2 159.8 71 222.4zM666.6 384l-64 64h165.4v-64h-101.4zM730.6 320h69.4c17.6 0 32 14.4 32 32v128c0 17.6-14.4 32-32 32h-261.4l-249 249c62.6 44.8 139.4 71 222.4 71 212 0 384-172 384-384 0-83-26.2-159.8-71-222.4l-94.4 94.4zM512-64c282.77 0 512 229.23 512 512s-229.23 512-512 512v0c-282.77 0-512-229.23-512-512s229.23-512 512-512v0zM544 768c-17.6 0-32-14.4-32-32 0-53 43-96 96-96h64c17.6 0 32-14.4 32-32s14.4-32 32-32 32 14.4 32 32c0 53-43 96-96 96h-64c-17.6 0-32 14.4-32 32s-14.4 32-32 32zM459 320l-192 192h-43c-17.6 0-32-14.4-32-32v-128c0-17.6 14.4-32 32-32h235z" />
<glyph unicode="&#xe969;" glyph-name="fa-ban" d="M734.4 135l-535.4 535.4c-44.8-62.6-71-139.4-71-222.4 0-212 172-384 384-384 83 0 159.8 26.2 222.4 71zM825 225.6c44.8 62.6 71 139.4 71 222.4 0 212-172 384-384 384-83 0-159.8-26.2-222.4-71l535.4-535.4zM0 448c0 282.77 229.23 512 512 512s512-229.23 512-512v0c0-282.77-229.23-512-512-512s-512 229.23-512 512v0z" />
<glyph unicode="&#xe96a;" glyph-name="fa-bandage" horiz-adv-x="1280" d="M960 128h192c70.6 0 128 57.4 128 128v384c0 70.6-57.4 128-128 128h-192v-640zM896 768h-512v-640h512v640zM128 768c-70.6 0-128-57.4-128-128v-384c0-70.6 57.4-128 128-128h192v640h-192zM496 544c0 26.51 21.49 48 48 48s48-21.49 48-48v0c0-26.51-21.49-48-48-48s-48 21.49-48 48v0zM736 592c26.51 0 48-21.49 48-48s-21.49-48-48-48v0c-26.51 0-48 21.49-48 48s21.49 48 48 48v0zM496 352c0 26.51 21.49 48 48 48s48-21.49 48-48v0c0-26.51-21.49-48-48-48s-48 21.49-48 48v0zM736 400c26.51 0 48-21.49 48-48s-21.49-48-48-48v0c-26.51 0-48 21.49-48 48s21.49 48 48 48v0z" />
<glyph unicode="&#xe96b;" glyph-name="fa-bangladeshi-taka-sign" horiz-adv-x="768" d="M72 895.6c-35.2 4.2-67.2-20.6-71.6-55.6s20.6-67.2 55.6-71.6l15.8-2c32-4 56-31.2 56-63.6v-62.8h-63.8c-35.4 0-64-28.6-64-64s28.6-64 64-64h64v-320c0-106 86-192 192-192h64c212 0 384 172 384 384v64c0 106-86 192-192 192h-32c-35.4 0-64-28.6-64-64s28.6-64 64-64h32c35.4 0 64-28.6 64-64v-64c0-141.4-114.6-256-256-256h-64c-35.4 0-64 28.6-64 64v320h64c35.4 0 64 28.6 64 64s-28.6 64-64 64h-64v63c0 96.8-72.2 178.6-168.2 190.6l-15.8 2z" />
<glyph unicode="&#xe96c;" glyph-name="fa-barcode" d="M48 896c-26.6 0-48-21.4-48-48v-800c0-26.6 21.4-48 48-48h32c26.6 0 48 21.4 48 48v800c0 26.6-21.4 48-48 48h-32zM224 896c-17.6 0-32-14.4-32-32v-832c0-17.6 14.4-32 32-32s32 14.4 32 32v832c0 17.6-14.4 32-32 32zM368 896c-26.6 0-48-21.4-48-48v-800c0-26.6 21.4-48 48-48h32c26.6 0 48 21.4 48 48v800c0 26.6-21.4 48-48 48h-32zM560 896c-26.6 0-48-21.4-48-48v-800c0-26.6 21.4-48 48-48h32c26.6 0 48 21.4 48 48v800c0 26.6-21.4 48-48 48h-32zM896 848v-800c0-26.6 21.4-48 48-48h32c26.6 0 48 21.4 48 48v800c0 26.6-21.4 48-48 48h-32c-26.6 0-48-21.4-48-48zM768 864v-832c0-17.6 14.4-32 32-32s32 14.4 32 32v832c0 17.6-14.4 32-32 32s-32-14.4-32-32z" />
<glyph unicode="&#xe96d;" glyph-name="fa-bars-progress" d="M896 640h-256v64h256v-64zM96 832c-53 0-96-43-96-96v-128c0-53 43-96 96-96h832c53 0 96 43 96 96v128c0 53-43 96-96 96h-832zM896 256v-64h-512v64h512zM96 384c-53 0-96-43-96-96v-128c0-53 43-96 96-96h832c53 0 96 43 96 96v128c0 53-43 96-96 96h-832z" />
<glyph unicode="&#xe96e;" glyph-name="fa-bars-staggered" d="M0 768c0 35.4 28.6 64 64 64h768c35.4 0 64-28.6 64-64s-28.6-64-64-64h-768c-35.4 0-64 28.6-64 64zM128 448c0 35.4 28.6 64 64 64h768c35.4 0 64-28.6 64-64s-28.6-64-64-64h-768c-35.4 0-64 28.6-64 64zM896 128c0-35.4-28.6-64-64-64h-768c-35.4 0-64 28.6-64 64s28.6 64 64 64h768c35.4 0 64-28.6 64-64z" />
<glyph unicode="&#xe96f;" glyph-name="fa-bars" horiz-adv-x="896" d="M0 768c0 35.4 28.6 64 64 64h768c35.4 0 64-28.6 64-64s-28.6-64-64-64h-768c-35.4 0-64 28.6-64 64zM0 448c0 35.4 28.6 64 64 64h768c35.4 0 64-28.6 64-64s-28.6-64-64-64h-768c-35.4 0-64 28.6-64 64zM896 128c0-35.4-28.6-64-64-64h-768c-35.4 0-64 28.6-64 64s28.6 64 64 64h768c35.4 0 64-28.6 64-64z" />
<glyph unicode="&#xe970;" glyph-name="fa-baseball-bat-ball" d="M848 960c-24.8 0-48.4-9.8-66-27.4l-315-315c-21-21-39.6-44.2-55.4-69.2l-146.2-231.6c-14.6-23-31.6-44.4-51-63.8l-74.6-74.4 102.6-102.6 74.6 74.6c19.2 19.2 40.6 36.4 63.8 51l231.6 146.2c25 15.8 48.2 34.4 69.2 55.4l315 314.8c17.4 17.4 27.4 41.2 27.4 66s-9.8 48.4-27.4 66l-82.6 82.6c-17.6 17.6-41.2 27.4-66 27.4zM1024 96c0 88.366-71.634 160-160 160s-160-71.634-160-160v0c0-88.366 71.634-160 160-160s160 71.634 160 160v0zM30 162c-18.8-18.8-18.8-49.2 0-67.8l128-128c18.8-18.8 49.2-18.8 67.8 0s18.8 49.2 0 67.8l-127.8 128c-18.8 18.8-49.2 18.8-67.8 0z" />
<glyph unicode="&#xe971;" glyph-name="fa-baseball" d="M125.4 513.2c-9.6-0.8-19.4-1.2-29.4-1.2-31.2 0-61.6 4-90.4 11.8 32.8 222 208.6 397.8 430.6 430.6 7.8-28.8 11.8-59.2 11.8-90.4 0-9.8-0.4-19.6-1.2-29.4-1.4-17.6 11.6-33 29.2-34.6s33 11.6 34.6 29.2c1 11.4 1.4 23 1.4 34.6 0 33-3.8 65.2-11.2 95.8 3.6 0 7.4 0.2 11.2 0.2 282.8 0.2 512-229 512-511.8 0-3.8 0-7.4-0.2-11.2-30.8 7.2-62.8 11.2-95.8 11.2-11.6 0-23.2-0.4-34.6-1.4-17.6-1.4-30.8-17-29.2-34.6s17-30.8 34.6-29.2c9.6 0.8 19.4 1.2 29.4 1.2 31.2 0 61.6-4 90.4-11.8-33-222-208.8-397.8-430.8-430.6-7.8 28.8-11.8 59.2-11.8 90.4 0 9.8 0.4 19.6 1.2 29.4 1.4 17.6-11.6 33-29.2 34.6s-33-11.6-34.6-29.2c-1-11.4-1.4-23-1.4-34.6 0-33 3.8-65.2 11.2-95.8-3.6 0-7.4-0.2-11.2-0.2-282.8-0.2-512 229-512 511.8 0 3.8 0 7.4 0.2 11.2 30.6-7.4 62.8-11.2 95.8-11.2 11.6 0 23.2 0.4 34.6 1.4 17.6 1.4 30.8 17 29.2 34.6s-17 30.8-34.6 29.2zM242.6 544c-16-7.4-23.2-26.4-15.8-42.4s26.4-23.2 42.4-15.8c90.4 41.6 163.4 114.4 205 205 7.4 16 0.4 35-15.8 42.4s-35 0.4-42.4-15.8c-35.2-76.6-97-138.4-173.4-173.4zM797 394.6c-7.4 16-26.4 23.2-42.4 15.8-90.4-41.6-163.4-114.4-205-205-7.4-16-0.4-35 15.8-42.4s35-0.4 42.4 15.8c35.2 76.6 97 138.4 173.4 173.4 16 7.4 23.2 26.4 15.8 42.4z" />
<glyph unicode="&#xe972;" glyph-name="fa-basket-shopping" horiz-adv-x="1152" d="M506.6 889.8c12.2 23.6 3 52.6-20.4 64.8s-52.6 3-64.8-20.4l-186.2-358.2h-171.2c-35.4 0-64-28.6-64-64s28.6-64 64-64l103.8-415c14.2-57 65.4-97 124.2-97h568c58.8 0 110 40 124.2 97l103.8 415c35.4 0 64 28.6 64 64s-28.6 64-64 64h-171.2l-186.2 358.2c-12.2 23.4-41.2 32.6-64.8 20.4s-32.6-41.2-20.4-64.8l163.2-313.8h-465.2l163.2 313.8zM384 352v-192c0-17.6-14.4-32-32-32s-32 14.4-32 32v192c0 17.6 14.4 32 32 32s32-14.4 32-32zM576 384c17.6 0 32-14.4 32-32v-192c0-17.6-14.4-32-32-32s-32 14.4-32 32v192c0 17.6 14.4 32 32 32zM832 352v-192c0-17.6-14.4-32-32-32s-32 14.4-32 32v192c0 17.6 14.4 32 32 32s32-14.4 32-32z" />
<glyph unicode="&#xe973;" glyph-name="fa-basketball" d="M173.2 832l170.4-170.4c45.4 55 72.4 125.6 72.4 202.4 0 29.4-4 57.8-11.4 84.8-87.4-18.8-166.6-59.8-231.4-116.8zM128 786.8c-57-64.8-98-144-116.8-231.4 27-7.4 55.4-11.4 84.8-11.4 76.8 0 147.4 27 202.6 72.2l-170.6 170.6zM512 960c-14.6 0-29.2-0.6-43.6-1.8 7.6-30.2 11.6-61.8 11.6-94.2 0-94.6-34.2-181-90.8-248l122.8-122.8 338.8 338.8c-90.4 79.6-209 128-338.8 128zM96 480c-32.4 0-64 4-94.2 11.6-1.2-14.4-1.8-29-1.8-43.6 0-129.8 48.4-248.4 128-338.8l338.8 338.8-122.8 122.8c-67-56.6-153.4-90.8-248-90.8zM1022.2 404.4c1.2 14.4 1.8 29 1.8 43.6 0 129.8-48.4 248.4-128 338.8l-338.8-338.8 122.8-122.8c66.8 56.6 153.4 90.8 248 90.8 32.4 0 64-4 94.2-11.6zM1012.8 340.6c-27 7.4-55.4 11.4-84.8 11.4-76.8 0-147.4-27-202.6-72.2l170.6-170.6c57 64.6 98.2 143.8 116.8 231.4zM680.2 234.6c-45.2-55.2-72.2-125.8-72.2-202.6 0-29.4 4-57.8 11.4-84.8 87.4 18.8 166.6 59.8 231.4 116.8l-170.4 170.4zM634.8 280l-122.8 122.8-338.8-338.8c90.2-79.6 208.8-128 338.8-128 14.6 0 29.2 0.6 43.6 1.8-7.6 30.2-11.6 61.8-11.6 94.2 0 94.6 34.2 181 90.8 248z" />
<glyph unicode="&#xe974;" glyph-name="fa-bath" d="M192 805.4c0 14.6 11.8 26.6 26.6 26.6 7 0 13.8-2.8 18.8-7.8l29.8-29.8c-7.2-18-11.2-37.8-11.2-58.4 0-39.8 14.4-76 38.4-104-10.6-18.4-8-42.2 7.6-58 18.8-18.8 49.2-18.8 67.8 0l208.2 208c18.8 18.8 18.8 49.2 0 67.8-15.8 15.8-39.6 18.2-58 7.6-28 24.2-64.2 38.6-104 38.6-20.6 0-40.4-4-58.4-11l-29.8 29.8c-29 29-68.4 45.2-109.2 45.2-85.4 0-154.6-69.2-154.6-154.6v-357.4c-35.4 0-64-28.6-64-64s28.6-64 64-64h896c35.4 0 64 28.6 64 64s-28.6 64-64 64h-768v357.4zM64 256v-32c0-56.8 24.8-108 64-143.2v-80.8c0-35.4 28.6-64 64-64s64 28.6 64 64v32h512v-32c0-35.4 28.6-64 64-64s64 28.6 64 64v80.8c39.2 35.2 64 86.2 64 143.2v32h-896z" />
<glyph unicode="&#xe975;" glyph-name="fa-battery-empty" horiz-adv-x="1152" d="M160 640c-17.6 0-32-14.4-32-32v-320c0-17.6 14.4-32 32-32h768c17.6 0 32 14.4 32 32v320c0 17.6-14.4 32-32 32h-768zM0 608c0 88.4 71.6 160 160 160h768c88.4 0 160-71.6 160-160v-32c35.4 0 64-28.6 64-64v-128c0-35.4-28.6-64-64-64v-32c0-88.4-71.6-160-160-160h-768c-88.4 0-160 71.6-160 160v320z" />
<glyph unicode="&#xe976;" glyph-name="fa-battery-full" horiz-adv-x="1152" d="M928 640c17.6 0 32-14.4 32-32v-320c0-17.6-14.4-32-32-32h-768c-17.6 0-32 14.4-32 32v320c0 17.6 14.4 32 32 32h768zM160 768c-88.4 0-160-71.6-160-160v-320c0-88.4 71.6-160 160-160h768c88.4 0 160 71.6 160 160v32c35.4 0 64 28.6 64 64v128c0 35.4-28.6 64-64 64v32c0 88.4-71.6 160-160 160h-768zM896 576h-704v-256h704v256z" />
<glyph unicode="&#xe977;" glyph-name="fa-battery-half" horiz-adv-x="1152" d="M928 640c17.6 0 32-14.4 32-32v-320c0-17.6-14.4-32-32-32h-768c-17.6 0-32 14.4-32 32v320c0 17.6 14.4 32 32 32h768zM160 768c-88.4 0-160-71.6-160-160v-320c0-88.4 71.6-160 160-160h768c88.4 0 160 71.6 160 160v32c35.4 0 64 28.6 64 64v128c0 35.4-28.6 64-64 64v32c0 88.4-71.6 160-160 160h-768zM576 576h-384v-256h384v256z" />
<glyph unicode="&#xe978;" glyph-name="fa-battery-quarter" horiz-adv-x="1152" d="M928 640c17.6 0 32-14.4 32-32v-320c0-17.6-14.4-32-32-32h-768c-17.6 0-32 14.4-32 32v320c0 17.6 14.4 32 32 32h768zM160 768c-88.4 0-160-71.6-160-160v-320c0-88.4 71.6-160 160-160h768c88.4 0 160 71.6 160 160v32c35.4 0 64 28.6 64 64v128c0 35.4-28.6 64-64 64v32c0 88.4-71.6 160-160 160h-768zM384 576h-192v-256h192v256z" />
<glyph unicode="&#xe979;" glyph-name="fa-battery-three-quarters" horiz-adv-x="1152" d="M928 640c17.6 0 32-14.4 32-32v-320c0-17.6-14.4-32-32-32h-768c-17.6 0-32 14.4-32 32v320c0 17.6 14.4 32 32 32h768zM160 768c-88.4 0-160-71.6-160-160v-320c0-88.4 71.6-160 160-160h768c88.4 0 160 71.6 160 160v32c35.4 0 64 28.6 64 64v128c0 35.4-28.6 64-64 64v32c0 88.4-71.6 160-160 160h-768zM704 576h-512v-256h512v256z" />
<glyph unicode="&#xe97a;" glyph-name="fa-bed-pulse" horiz-adv-x="1280" d="M966.4 940.8l81.6-108.8h184c26.6 0 48-21.4 48-48s-21.4-48-48-48h-208c-15.2 0-29.4 7.2-38.4 19.2l-48.2 64.2-94-199.8c-7.4-15.6-22.6-26.2-39.8-27.4s-33.8 6.8-43.4 21.2l-81.8 122.6h-246.4c-26.6 0-48 21.4-48 48s21.4 48 48 48h272c16 0 31-8 40-21.4l48.8-73.2 91.8 195c7.2 15.2 21.8 25.6 38.6 27.4s33.2-5.4 43.2-19zM640 640h25.4l41.4-62.2c22.4-33.6 61.2-52.6 101.4-49.6s75.8 27.4 93 64l22.6 47.8h164.2c106 0 192-86 192-192v-448c0-35.4-28.6-64-64-64s-64 28.6-64 64v64h-1024v-64c0-35.4-28.6-64-64-64s-64 28.6-64 64v768c0 35.4 28.6 64 64 64s64-28.6 64-64v-512h448v320c0 35.4 28.6 64 64 64zM352 640c88.366 0 160-71.634 160-160s-71.634-160-160-160v0c-88.366 0-160 71.634-160 160s71.634 160 160 160v0z" />
<glyph unicode="&#xe97b;" glyph-name="fa-bed" horiz-adv-x="1280" d="M64 896c35.4 0 64-28.6 64-64v-512h448v320c0 35.4 28.6 64 64 64h448c106 0 192-86 192-192v-448c0-35.4-28.6-64-64-64s-64 28.6-64 64v64h-1024v-64c0-35.4-28.6-64-64-64s-64 28.6-64 64v768c0 35.4 28.6 64 64 64zM352 704c88.366 0 160-71.634 160-160s-71.634-160-160-160v0c-88.366 0-160 71.634-160 160s71.634 160 160 160v0z" />
<glyph unicode="&#xe97c;" glyph-name="fa-beer-mug-empty" d="M64 832c0 35.4 28.6 64 64 64h576c35.4 0 64-28.6 64-64v-64h102.4c84.8 0 153.6-68.8 153.6-153.6v-204.2c0-60.8-35.8-115.8-91.2-140.4l-164.8-73.2v-68.6c0-70.6-57.4-128-128-128h-448c-70.6 0-128 57.4-128 128v704zM768 336.8l112.8 50.2c9.2 4.2 15.2 13.2 15.2 23.4v204c0 14.2-11.4 25.6-25.6 25.6h-102.4v-303.2zM320 672c0 17.6-14.4 32-32 32s-32-14.4-32-32v-448c0-17.6 14.4-32 32-32s32 14.4 32 32v448zM448 672c0 17.6-14.4 32-32 32s-32-14.4-32-32v-448c0-17.6 14.4-32 32-32s32 14.4 32 32v448zM576 672c0 17.6-14.4 32-32 32s-32-14.4-32-32v-448c0-17.6 14.4-32 32-32s32 14.4 32 32v448z" />
<glyph unicode="&#xe97d;" glyph-name="fa-bell-concierge" d="M432 832c-26.6 0-48-21.4-48-48s21.4-48 48-48h32v-66.6c-224.8-23.8-400-214.2-400-445.4h896c0 231.2-175.2 421.6-400 445.4v66.6h32c26.6 0 48 21.4 48 48s-21.4 48-48 48h-160zM48 160c-26.6 0-48-21.4-48-48s21.4-48 48-48h928c26.6 0 48 21.4 48 48s-21.4 48-48 48h-928z" />
<glyph unicode="&#xe97e;" glyph-name="fa-bell-slash" horiz-adv-x="1280" d="M77.6 949.8c-20.8 16.4-51 12.6-67.4-8.2s-12.6-51 8.2-67.4l1184-928c20.8-16.4 51-12.6 67.4 8.2s12.6 51-8.2 67.4l-180.4 141.4c0.4 0.8 0.8 1.8 1.2 2.6 10.4 23 6.2 50-10.6 68.8l-14.8 16.6c-62.4 70.4-97 161-97 255.2v37.6c0 154.8-110 284-256 313.6v38.4c0 35.4-28.6 64-64 64s-64-28.6-64-64v-38.4c-85.2-17.2-158-68.4-204-138.6l-294.4 230.8zM812.4 128l-492.4 387.8v-9.6c0-94-34.6-184.8-97-255.2l-14.8-16.6c-16.8-18.8-20.8-45.8-10.6-68.8s33.2-37.6 58.4-37.6h556.4zM730.6-26.6c24 24 37.4 56.6 37.4 90.6h-256c0-34 13.4-66.6 37.4-90.6s56.6-37.4 90.6-37.4 66.6 13.4 90.6 37.4z" />
<glyph unicode="&#xe97f;" glyph-name="fa-bell" horiz-adv-x="896" d="M448 960c-35.4 0-64-28.6-64-64v-38.4c-146-29.6-256-158.8-256-313.6v-37.6c0-94-34.6-184.8-97-255.2l-14.8-16.6c-16.8-18.8-20.8-45.8-10.6-68.8s33.2-37.8 58.4-37.8h768c25.2 0 48 14.8 58.4 37.8s6.2 50-10.6 68.8l-14.8 16.6c-62.4 70.4-97 161-97 255.2v37.6c0 154.8-110 284-256 313.6v38.4c0 35.4-28.6 64-64 64zM538.6-26.6c24 24 37.4 56.6 37.4 90.6h-256c0-34 13.4-66.6 37.4-90.6s56.6-37.4 90.6-37.4 66.6 13.4 90.6 37.4z" />
<glyph unicode="&#xe980;" glyph-name="fa-bezier-curve" horiz-adv-x="1280" d="M592 688v96h96v-96h-96zM576 896c-53 0-96-43-96-96v-8h-236.8c-20.8 42.6-64.6 72-115.2 72-70.6 0-128-57.4-128-128s57.4-128 128-128c50.6 0 94.4 29.4 115.2 72h133.8c-117.8-79.2-197.8-210-208-360h-9c-53 0-96-43-96-96v-128c0-53 43-96 96-96h128c53 0 96 43 96 96v128c0 53-43 96-96 96h-6.6c11.8 134 97 246.8 215 298.2 17.2-25.4 46.4-42.2 79.6-42.2h128c33.2 0 62.2 16.8 79.6 42.2 118-51.4 203.2-164.2 215-298.2h-6.6c-53 0-96-43-96-96v-128c0-53 43-96 96-96h128c53 0 96 43 96 96v128c0 53-43 96-96 96h-9c-10 150-90.2 280.8-208 360h133.8c20.8-42.6 64.6-72 115.2-72 70.6 0 128 57.4 128 128s-57.4 128-128 128c-50.6 0-94.4-29.4-115.2-72h-236.8v8c0 53-43 96-96 96h-128zM176 208h96v-96h-96v96zM1008 112v96h96v-96h-96z" />
<glyph unicode="&#xe981;" glyph-name="fa-bicycle" horiz-adv-x="1280" d="M624 896c-26.6 0-48-21.4-48-48s21.4-48 48-48h51.4l69.2-128h-298.8l-54.8 76c-9 12.6-23.6 20-39 20h-112c-26.6 0-48-21.4-48-48s21.4-48 48-48h87.4l44.2-61.4-53.2-106.2c-20 5-41 7.6-62.4 7.6-141.4 0-256-114.6-256-256s114.6-256 256-256c130.6 0 238.2 97.8 254 224h98c17 0 32.6 9 41.4 23.6l169.6 287 43.4-80.2c-57.6-47-94.4-118.4-94.4-198.4 0-141.4 114.6-256 256-256s256 114.6 256 256-114.6 256-256 256c-27 0-53-4.2-77.4-12l-195.8 362.4c-11.2 20.8-32.8 33.6-56.4 33.6h-70.4zM917.2 352.6l64.6-119.4c12.6-23.4 41.8-32 65-19.4s32 41.8 19.4 65l-64.6 119.4c7.2 1.2 14.8 1.8 22.4 1.8 79.6 0 144-64.4 144-144s-64.4-144-144-144-144 64.4-144 144c0 37.2 14 71 37.2 96.6zM266.4 224h130c-14.6-64.2-72-112-140.4-112-79.6 0-144 64.4-144 144s64.4 144 144 144c3.4 0 6.8-0.2 10.2-0.4l-48.4-97c-18-36.2 8.2-78.8 48.6-78.8zM333.8 320l101.4 202.6 145.8-202.4-0.2-0.2h-247.2zM515 576h216.8l-97.8-165.6-119.2 165.6z" />
<glyph unicode="&#xe982;" glyph-name="fa-binoculars" d="M256 896h64c35.4 0 64-28.6 64-64v-64h-192v64c0 35.4 28.6 64 64 64zM384 704v-640c0-35.4-28.6-64-64-64h-256c-35.4 0-64 28.6-64 64v118.2c0 69.2 18.8 137.2 54.4 196.6 27.4 45.6 45 96.4 51.6 149.2l15 120c4 32 31.2 56 63.6 56h199.4zM839.6 704c32.2 0 59.6-24 63.6-56l14.8-120c6.6-52.8 24.2-103.6 51.6-149.2 35.6-59.4 54.4-127.4 54.4-196.6v-118.2c0-35.4-28.6-64-64-64h-256c-35.4 0-64 28.6-64 64v640h199.6zM640 832c0 35.4 28.6 64 64 64h64c35.4 0 64-28.6 64-64v-64h-192v64zM576 704v-320h-128v320h128z" />
<glyph unicode="&#xe983;" glyph-name="fa-biohazard" horiz-adv-x="1152" d="M346.4 960c-3.6 0-7-1.4-9.6-4-59.8-60.6-96.8-144-96.8-236 0-52.4 12-101.8 33.2-146-44-4.8-87.6-18.2-128.4-41-69-38.6-118.2-97.8-144-165-1.4-3.4-1-7.4 1-10.4 4.4-7.4 14.8-8.6 21.2-2.6 105.4 96.4 293 114.8 387-43s-16.2-306.2-155.2-346.4c-8.4-2.4-12.6-11.8-8.2-19.2 2-3.2 5.2-5.4 9-6 73-11.8 150.4-0.2 219.4 38.4 40.8 22.8 74.8 53 101 87.6 26.2-34.6 60.2-64.8 101-87.6 69-38.6 146.6-50.4 219.4-38.4 3.8 0.6 7 2.8 9 6 4.4 7.4 0.2 16.8-8.2 19.2-139 40.2-249.2 188.4-155.2 346.4s281.4 139.6 387 42.8c6.4-5.8 16.8-4.6 21.2 2.6 2 3.2 2.2 7 1 10.4-25.8 67.2-75 126.4-144.2 165-40.8 22.8-84.4 36.2-128.4 41 21.4 44.4 33.4 93.8 33.4 146.2 0 92-37 175.4-96.8 236-2.6 2.6-6 4-9.6 4-10 0-16.8-10.4-13.4-19.8 51.2-141.2-21-332.2-216.2-332.2s-267.4 191-216.2 332.2c3.4 9.4-3.2 19.8-13.4 19.8zM480 416c0 53.019 42.981 96 96 96s96-42.981 96-96v0c0-53.019-42.981-96-96-96s-96 42.981-96 96v0zM363.4 124.8c12.6 23.6 19.6 50.2 17.2 79.6-39 36-68 82.8-82.4 135.6-25 16.2-52.4 23.6-80 24.8-18 0.8-36.2-1.2-54.2-5.4 15.6-114.2 77.4-213.6 165.8-278.8 13.6 13.4 25.2 28.2 33.6 44.2zM576 832c-57.6 0-112.6-11.8-162.4-33 4-16.6 10-32.4 18-47 13.6-24.8 33.4-46.2 60.2-60.6 26.6 8.2 55 12.6 84.4 12.6s57.6-4.4 84.4-12.6c26.8 14.4 46.6 35.8 60.2 60.6 8 14.6 14 30.4 18 47-50.2 21.2-105.2 33-162.8 33zM853.8 340c-14.4-52.8-43.4-99.4-82.4-135.6-2.4-29.4 4.4-56.2 17.2-79.6 8.6-16 20-30.8 33.6-44.2 88.6 65.2 150.4 164.6 165.8 278.8-18 4.4-36.2 6.2-54.2 5.4-27.6-1.2-55-8.8-80-24.8z" />
<glyph unicode="&#xe984;" glyph-name="fa-bitcoin-sign" horiz-adv-x="640" d="M96 896c0 35.4 28.6 64 64 64s64-28.6 64-64v-64h64v64c0 35.4 28.6 64 64 64s64-28.6 64-64v-64c0-3-0.2-6.2-0.6-9 92.8-27.4 160.6-113.2 160.6-215 0-48.4-15.4-93.2-41.4-129.8 63.4-39.6 105.4-110 105.4-190.2 0-123.8-100.2-224-224-224v-64c0-35.4-28.6-64-64-64s-64 28.6-64 64v64h-64v-64c0-35.4-28.6-64-64-64s-64 28.6-64 64v64h-12.6c-46 0-83.4 37.4-83.4 83.4v609.4c0 41.6 33.6 75.2 75.2 75.2h20.8v64zM128 512h224c53 0 96 43 96 96s-43 96-96 96h-224v-192zM352 384h-224v-192h288c53 0 96 43 96 96s-43 96-96 96h-64z" />
<glyph unicode="&#xe985;" glyph-name="fa-blender-phone" horiz-adv-x="1152" d="M448 256l-54.4 599.4c-5.2 56.2 39 104.6 95.6 104.6h579c42.2 0 72.8-40.2 61.8-80.8l-13-47.2h-317c-17.6 0-32-14.4-32-32s14.4-32 32-32h299.6l-35-128h-264.6c-17.6 0-32-14.4-32-32s14.4-32 32-32h247.2l-35-128h-212.2c-17.6 0-32-14.4-32-32s14.4-32 32-32h195l-35-128h-512zM416 192h576c53 0 96-43 96-96v-64c0-53-43-96-96-96h-576c-53 0-96 43-96 96v64c0 53 43 96 96 96zM704 0c35.346 0 64 28.654 64 64s-28.654 64-64 64v0c-35.346 0-64-28.654-64-64s28.654-64 64-64v0zM295 898.6c21.6-13.4 30.6-42 21.2-66.8l-44-115.6c-8.4-21.8-29-35.2-50.6-32.8l-66.6 7.2c-27.2-84.4-27.2-176.8 0-261.4l66.6 7.2c21.8 2.4 42.4-11 50.6-32.8l44-115.6c9.4-24.8 0.4-53.4-21.2-66.8l-88-54.4c-19.4-12-43.8-8.4-59.6 8.6-196.6 212.6-196.6 556.6 0 769 15.8 17 40.2 20.6 59.6 8.6l88-54.4z" />
<glyph unicode="&#xe986;" glyph-name="fa-blender" d="M0 832c0 70.6 57.4 128 128 128h812.2c42.2 0 72.8-40.2 61.8-80.8l-13-47.2h-317c-17.6 0-32-14.4-32-32s14.4-32 32-32h299.6l-35-128h-264.6c-17.6 0-32-14.4-32-32s14.4-32 32-32h247.2l-35-128h-212.2c-17.6 0-32-14.4-32-32s14.4-32 32-32h195l-35-128h-512l-17.4 192h-174.6c-70.6 0-128 57.4-128 128v256zM291 576l-23.4 256h-139.6v-256h163zM288 192h576c53 0 96-43 96-96v-64c0-53-43-96-96-96h-576c-53 0-96 43-96 96v64c0 53 43 96 96 96zM576 0c35.346 0 64 28.654 64 64s-28.654 64-64 64v0c-35.346 0-64-28.654-64-64s28.654-64 64-64v0z" />
<glyph unicode="&#xe987;" glyph-name="fa-blog" d="M384 896c0-35.4 28.6-64 64-64 247.4 0 448-200.6 448-448 0-35.4 28.6-64 64-64s64 28.6 64 64c0 318.2-257.8 576-576 576-35.4 0-64-28.6-64-64zM384 704c0-35.4 28.6-64 64-64 141.4 0 256-114.6 256-256 0-35.4 28.6-64 64-64s64 28.6 64 64c0 212-172 384-384 384-35.4 0-64-28.6-64-64zM192 672c0 53-43 96-96 96s-96-43-96-96v-448c0-159 129-288 288-288s288 129 288 288-129 288-288 288h-32v-192h32c53 0 96-43 96-96s-43-96-96-96-96 43-96 96v448z" />
<glyph unicode="&#xe988;" glyph-name="fa-bold" horiz-adv-x="768" d="M0 832c0 35.4 28.6 64 64 64h384c141.4 0 256-114.6 256-256 0-62.6-22.6-120.2-60-164.6 74.2-44.8 124-126.2 124-219.4 0-141.4-114.6-256-256-256h-448c-35.4 0-64 28.6-64 64s28.6 64 64 64h32v640h-32c-35.4 0-64 28.6-64 64zM448 512c70.6 0 128 57.4 128 128s-57.4 128-128 128h-224v-256h224zM224 384v-256h288c70.6 0 128 57.4 128 128s-57.4 128-128 128h-288z" />
<glyph unicode="&#xe989;" glyph-name="fa-bolt-lightning" horiz-adv-x="768" d="M0 448l57 456c4 32 31.2 56 63.6 56h337.2c30 0 54.2-24.2 54.2-54.2 0-6.4-1.2-13-3.4-19l-92.6-246.8h278.6c40.4 0 73.4-32.8 73.4-73.4 0-14.8-4.4-29.2-12.8-41.4l-384.4-562c-11.8-17.2-31.2-27.4-51.8-27.4h-5.8c-31.4 0-57 25.6-57 57 0 4.6 0.6 9.2 1.8 13.8l94 377.4h-288c-35.4 0-64 28.6-64 64z" />
<glyph unicode="&#xe98a;" glyph-name="fa-bolt" horiz-adv-x="896" d="M698.8 870.8c11.8 27.4 3 59.4-21.2 77s-57.2 16-79.8-3.6l-512-448c-20-17.6-27.2-45.8-17.8-70.6s33.4-41.6 60-41.6h223l-153.8-358.8c-11.8-27.4-3-59.4 21.2-77s57.2-16 79.8 3.6l512 448c20 17.6 27.2 45.8 17.8 70.6s-33.2 41.4-60 41.4h-223l153.8 359z" />
<glyph unicode="&#xe98b;" glyph-name="fa-bomb" d="M918.2 855.2l-33 91.8c-3.8 7.8-12.2 13-21 13s-17-5.2-20.8-13l-33-91.8-92-33.6c-8.6-3.2-14.6-11.8-14.4-20.8 0-9 6-17.4 14.4-20.4l91.4-33.6 33.6-91.6c3-8.8 11.6-15 20.8-15s17.8 6.2 20.8 15l33 91.6 91.4 33.6c8.4 3 14.4 11.4 14.4 20.4 0 9.2-6 17.8-14.4 20.8l-91.2 33.6zM653.4 749.2c-25 25-65.6 25-90.6 0l-5.8-5.8c-44 16-91.6 24.6-141 24.6-229.8 0-416-186.2-416-416s186.2-416 416-416 416 186.2 416 416c0 49.4-8.6 97-24.4 141l5.8 5.8c25 25 25 65.6 0 90.6l-160 160zM400 576c-114.8 0-208-93.2-208-208v-16c0-17.6-14.4-32-32-32s-32 14.4-32 32v16c0 150.2 121.8 272 272 272h16c17.6 0 32-14.4 32-32s-14.4-32-32-32h-16z" />
<glyph unicode="&#xe98c;" glyph-name="fa-bone" horiz-adv-x="1152" d="M307.4 670.4c13.8-32.6 41.2-62.4 76.6-62.4h384c35.4 0 62.8 29.8 76.6 62.4 24.2 57.4 81.2 97.6 147.4 97.6 88.4 0 160-71.6 160-160 0-60.8-34-113.8-84-140.8-7.2-3.8-12-11-12-19.2s4.8-15.4 12-19.2c50-27 84-80 84-140.8 0-88.4-71.6-160-160-160-66.2 0-123.2 40.2-147.4 97.6-13.8 32.6-41.2 62.4-76.6 62.4h-384c-35.4 0-62.8-29.8-76.6-62.4-24.2-57.4-81.2-97.6-147.4-97.6-88.4 0-160 71.6-160 160 0 60.8 34 113.8 84 140.8 7.2 3.8 12 11 12 19.2s-4.8 15.4-12 19.2c-50 27-84 80-84 140.8 0 88.4 71.6 160 160 160 66.2 0 123.2-40.2 147.4-97.6z" />
<glyph unicode="&#xe98d;" glyph-name="fa-bong" horiz-adv-x="896" d="M320 543c0-58.2-31.2-107.8-74.4-135.6-34.4-22.2-63-52.2-83.4-87.4h443.6c-20.4 35.2-49 65.2-83.4 87.4-43.2 27.8-74.4 77.4-74.4 135.6v289h-128v-289zM576 832v-289c0-11.4 6.2-21.8 15.8-28 22.4-14.4 43-31 61.8-49.6l78.6 78.6-14 14c-18.8 18.8-18.8 49.2 0 67.8s49.2 18.8 67.8 0l96-96c18.8-18.8 18.8-49.2 0-67.8s-49.2-18.8-67.8 0l-14 14-86.6-86.6c34.4-57.6 54.4-125.2 54.4-197.4 0-78.8-23.8-152.2-64.4-213-19.2-28.8-53-43-87.6-43h-463.8c-34.6 0-68.4 14.2-87.6 43-40.8 60.8-64.6 134.2-64.6 213 0 135.6 70.2 254.6 176.2 323 9.6 6.2 15.8 16.6 15.8 28v289c-35.4 0-64 28.6-64 64s28.6 64 64 64h384c35.4 0 64-28.6 64-64s-28.6-64-64-64z" />
<glyph unicode="&#xe98e;" glyph-name="fa-book-atlas" horiz-adv-x="896" d="M0 768c0 106 86 192 192 192h640c35.4 0 64-28.6 64-64v-640c0-35.4-28.6-64-64-64v-128c35.4 0 64-28.6 64-64s-28.6-64-64-64h-640c-106 0-192 86-192 192v640zM128 128c0-35.4 28.6-64 64-64h512v128h-512c-35.4 0-64-28.6-64-64zM494.8 392.4c-7.4-7.4-12.4-8.4-14.8-8.4s-7.4 1-14.8 8.4c-7.6 7.4-16 20-23.6 37.8-12.4 29-21.6 68.6-24.4 113.8h126c-3-45.2-12-84.8-24.4-113.8-7.6-17.8-16-30.4-23.6-37.8zM580.2 412.2c14.6 36.6 24 82.2 26.8 131.8h62.2c-9.4-55.8-42.8-103.4-89-131.8zM580.2 739.8c46.4-28.4 79.8-76 89-131.8h-62.2c-2.8 49.4-12.2 95-26.8 131.8zM736 576c0 141.385-114.615 256-256 256s-256-114.615-256-256v0c0-141.385 114.615-256 256-256s256 114.615 256 256v0zM290.6 544h62.2c2.8-49.4 12.2-95 26.8-131.8-46.4 28.4-79.8 76-89 131.8zM352.8 608h-62.2c9.4 55.8 42.8 103.4 89 131.8-14.6-36.6-24-82.2-26.8-131.8zM465 759.6c7.4 7.4 12.4 8.4 14.8 8.4s7.4-1 14.8-8.4c7.6-7.4 16-20 23.6-37.8 12.4-29 21.6-68.6 24.4-113.8h-126c3 45.2 12 84.8 24.4 113.8 7.6 17.8 16 30.4 23.6 37.8z" />
<glyph unicode="&#xe98f;" glyph-name="fa-book-bible" horiz-adv-x="896" d="M192 960c-106 0-192-86-192-192v-640c0-106 86-192 192-192h640c35.4 0 64 28.6 64 64s-28.6 64-64 64v128c35.4 0 64 28.6 64 64v640c0 35.4-28.6 64-64 64h-640zM192 192h512v-128h-512c-35.4 0-64 28.6-64 64s28.6 64 64 64zM416 800c0 17.6 14.4 32 32 32h64c17.6 0 32-14.4 32-32v-96h96c17.6 0 32-14.4 32-32v-64c0-17.6-14.4-32-32-32h-96v-224c0-17.6-14.4-32-32-32h-64c-17.6 0-32 14.4-32 32v224h-96c-17.6 0-32 14.4-32 32v64c0 17.6 14.4 32 32 32h96v96z" />
<glyph unicode="&#xe990;" glyph-name="fa-book-bookmark" horiz-adv-x="896" d="M0 768c0 106 86 192 192 192h192v-381.4c0-26.8 31-41.8 52-25l108 86.4 108-86.4c21-16.8 52-1.8 52 25v381.4h128c35.4 0 64-28.6 64-64v-640c0-35.4-28.6-64-64-64v-128c35.4 0 64-28.6 64-64s-28.6-64-64-64h-640c-106 0-192 86-192 192v640zM128 128c0-35.4 28.6-64 64-64h512v128h-512c-35.4 0-64-28.6-64-64z" />
<glyph unicode="&#xe991;" glyph-name="fa-book-journal-whills" horiz-adv-x="896" d="M0 768c0 106 86 192 192 192h640c35.4 0 64-28.6 64-64v-640c0-35.4-28.6-64-64-64v-128c35.4 0 64-28.6 64-64s-28.6-64-64-64h-640c-106 0-192 86-192 192v640zM128 128c0-35.4 28.6-64 64-64h512v128h-512c-35.4 0-64-28.6-64-64zM308.8 596.8l-42.4 42.4c-6-20.2-10.2-41.2-10.2-63.2 0-0.4 0-1 0.2-1.6s0.2-1 0.2-1.6l73.8-64.8c5-4.2 6.8-11.6 4.6-17.8-2.6-6-8.2-10.2-15-10.2-3.8 0.2-7.6 1.6-10.4 4l-47.2 41.2c23.2-99.2 111.4-173.2 217.6-173.2s194.6 74 217.8 173.2l-47.2-41.2c-2.8-2.4-6.6-4-10.6-4-4.4 0.2-8.8 2.2-12 5.6-2.4 3-3.8 6.8-4 10.4 0.2 4.4 2.2 8.8 5.6 12l74.2 65c0 0.6 0 1 0.2 1.6s0.2 1 0.2 1.6c0 22-4.2 43-10.2 63.2l-42.4-42.4c-6.2-6.2-16.2-6.2-22.6 0s-6.2 16.2 0 22.4l52.8 53c-16.4 34-41 63.4-71.8 85.2-5.4 3.8-12.4-2.8-10-9 17-44.8 7.2-96-26-131.2-6.4-6.8-7.2-17.8-1.8-25.4 19.6-28 25.4-63.8 15-97-11.8-38.8-44-68.2-83.8-76.6l-2.8 68.6 25.2-17.2c1.2-0.8 3-1.2 4.6-1.2 3 0 5.4 1.6 7 4s1.2 5.6-0.2 8l-17.2 28.6 36 7.2c3.6 0.8 6.2 4.2 6.2 8s-2.8 7-6.2 7.8l-36 7.4 17 28.6c1.6 2.4 1.8 5.8 0.2 8.2s-4 4-7 4h-0.2c-1.4-0.2-3-0.6-4.2-1.4l-28.2-19.2-9.6 224.4c-0.2 4.4-3.8 7.8-8 7.8s-7.8-3.2-8-7.8l-9.2-221.6-24 16.2c-3 2.2-7.2 1.8-10-0.8s-3.2-6.8-1.6-10l17.2-28.6-36-7.4c-3.6-0.8-6.2-4-6.2-7.8s2.8-7.2 6.2-8l36-7.6-17.2-28.4c-0.4-1.2-1-2.8-1-4 0-2.2 1-4.2 2.4-6 1.6-1.2 3.6-2 5.6-2 1.4 0 3.2 0.4 4.4 1.2l20.8 14.2-2.8-65.6c-39.8 8.2-72 37.8-83.8 76.6-10.2 33.2-4.4 68.8 15.2 97 5.4 7.8 4.6 18.6-1.8 25.4-33.2 35-43.2 86.2-26.2 131 2.4 6.2-4.6 12.8-10 9-30.6-21.8-55.2-51.2-71.6-85.2l52.8-53c6.2-6.2 6.2-16.2 0-22.4s-16.2-6.2-22.4 0z" />
<glyph unicode="&#xe992;" glyph-name="fa-book-medical" horiz-adv-x="896" d="M0 768c0 106 86 192 192 192h640c35.4 0 64-28.6 64-64v-640c0-35.4-28.6-64-64-64v-128c35.4 0 64-28.6 64-64s-28.6-64-64-64h-640c-106 0-192 86-192 192v640zM128 128c0-35.4 28.6-64 64-64h512v128h-512c-35.4 0-64-28.6-64-64zM416 736v-96h-96c-17.6 0-32-14.4-32-32v-64c0-17.6 14.4-32 32-32h96v-96c0-17.6 14.4-32 32-32h64c17.6 0 32 14.4 32 32v96h96c17.6 0 32 14.4 32 32v64c0 17.6-14.4 32-32 32h-96v96c0 17.6-14.4 32-32 32h-64c-17.6 0-32-14.4-32-32z" />
<glyph unicode="&#xe993;" glyph-name="fa-book-open-reader" d="M320 768c0 106.039 85.961 192 192 192s192-85.961 192-192v0c0-106.039-85.961-192-192-192s-192 85.961-192 192v0zM480 464v-528l-96.8 48.4c-41.8 20.8-87 34-133.6 38.6l-192 19.2c-32.6 3.4-57.6 30.8-57.6 63.8v406c0 35.4 28.6 64 64 64h60.6c127.2 0 251.2-39.2 355.4-112zM544-64v528c104.2 72.8 228.2 112 355.4 112h60.6c35.4 0 64-28.6 64-64v-406c0-32.8-25-60.4-57.6-63.6l-192-19.2c-46.4-4.6-91.8-17.8-133.6-38.6l-96.8-48.6z" />
<glyph unicode="&#xe994;" glyph-name="fa-book-open" horiz-adv-x="1152" d="M499.2 17c21.6-7.6 44.8 8.2 44.8 31v754.8c0 8.4-3.2 16.8-10 22-39.2 31.2-129.2 71.2-246 71.2-101 0-195.4-26.6-251.8-48.2-22.6-8.8-36.2-31.2-36.2-55.4v-740.6c0-23.8 25.6-40.4 48.2-33 63 21 162.8 45.2 239.8 45.2 67.8 0 158-28 211.2-47zM652.8 17c53.2 19 143.4 47 211.2 47 77 0 176.8-24.2 239.8-45.2 22.6-7.6 48.2 9.2 48.2 33v740.6c0 24.2-13.6 46.6-36.2 55.2-56.4 21.8-150.8 48.4-251.8 48.4-116.8 0-206.8-40-246-71.2-6.6-5.2-10-13.6-10-22v-754.8c0-22.8 23.4-38.6 44.8-31z" />
<glyph unicode="&#xe995;" glyph-name="fa-book-quran" horiz-adv-x="896" d="M704 960c106 0 192-86 192-192v-640c0-106-86-192-192-192h-640c-35.4 0-64 28.6-64 64s28.6 64 64 64v128c-35.4 0-64 28.6-64 64v640c0 35.4 28.6 64 64 64h640zM704 192h-512v-128h512c35.4 0 64 28.6 64 64s-28.6 64-64 64zM548.2 659.6l-17.8-42.8-46.2-3.8c-11.4-1-16-15-7.4-22.4l35.2-30.2-10.8-45.2c-2.6-11 9.4-19.8 19.2-13.8l39.6 24.2 39.6-24.2c9.8-6 21.8 2.8 19.2 13.8l-10.8 45.2 35.2 30.2c8.6 7.4 4 21.6-7.4 22.4l-46.2 3.8-17.8 42.8c-4.4 10.6-19.2 10.6-23.6 0zM192 576c0-141.4 114.6-256 256-256 51.2 0 99 15 139 41 6.4 4.2 9 12.4 6.2 19.4s-10.4 11.2-18 9.6c-12.2-2.4-25-3.8-38-3.8-104.8 0-189.8 85-189.8 189.8s85 189.8 189.8 189.8c13 0 25.6-1.4 38-3.8 7.6-1.6 15 2.6 18 9.6s0.4 15.2-6.2 19.4c-40 26-87.8 41-139 41-141.4 0-256-114.6-256-256z" />
<glyph unicode="&#xe996;" glyph-name="fa-book-skull" horiz-adv-x="896" d="M0 768c0 106 86 192 192 192h640c35.4 0 64-28.6 64-64v-640c0-35.4-28.6-64-64-64v-128c35.4 0 64-28.6 64-64s-28.6-64-64-64h-640c-106 0-192 86-192 192v640zM128 128c0-35.4 28.6-64 64-64h512v128h-512c-35.4 0-64-28.6-64-64zM640 736c0 70.6-71.6 128-160 128s-160-57.4-160-128c0-41.8 25.2-79 64-102.4v-25.6c0-17.6 14.4-32 32-32h128c17.6 0 32 14.4 32 32v25.6c38.8 23.4 64 60.6 64 102.4zM416 768c17.673 0 32-14.327 32-32s-14.327-32-32-32v0c-17.673 0-32 14.327-32 32s14.327 32 32 32v0zM512 736c0 17.673 14.327 32 32 32s32-14.327 32-32v0c0-17.673-14.327-32-32-32s-32 14.327-32 32v0zM268.6 541.4c-16.2 7-35-0.6-42-16.8s0.6-35 16.8-42l155.4-66.6-155.4-66.6c-16.2-7-23.8-25.8-16.8-42s25.8-23.8 42-16.8l211.4 90.6 211.4-90.6c16.2-7 35 0.6 42 16.8s-0.6 35-16.8 42l-155.4 66.6 155.4 66.6c16.2 7 23.8 25.8 16.8 42s-25.8 23.8-42 16.8l-211.4-90.6-211.4 90.6z" />
<glyph unicode="&#xe997;" glyph-name="fa-book-tanakh" horiz-adv-x="896" d="M704 960c106 0 192-86 192-192v-640c0-106-86-192-192-192h-640c-35.4 0-64 28.6-64 64s28.6 64 64 64v128c-35.4 0-64 28.6-64 64v640c0 35.4 28.6 64 64 64h640zM704 192h-512v-128h512c35.4 0 64 28.6 64 64s-28.6 64-64 64zM277.4 544l27.8-48h-55.4l27.8 48zM249.6 592l-55.4-96c-12.4-21.4 3-48 27.8-48h110.8l55.4-96c12.4-21.4 43.2-21.4 55.4 0l55.4 96h111c24.6 0 40 26.6 27.8 48l-55.4 96 55.4 96c12.4 21.4-3 48-27.8 48h-110.8l-55.4 96c-12.4 21.4-43.2 21.4-55.4 0l-55.4-96h-111c-24.6 0-40-26.6-27.8-48l55.4-96zM305 592l55.4 96h110.8l55.4-96-55.4-96h-110.6l-55.4 96zM305 688l-27.8-48-27.8 48h55.4zM388.2 736l27.8 48 27.8-48h-55.6zM526.8 688h55.4l-27.8-48-27.8 48zM554.6 544l27.8-48h-55.6l27.8 48zM443.8 448l-27.8-48-27.8 48h55.4z" />
<glyph unicode="&#xe998;" glyph-name="fa-book" horiz-adv-x="896" d="M192 960c-106 0-192-86-192-192v-640c0-106 86-192 192-192h640c35.4 0 64 28.6 64 64s-28.6 64-64 64v128c35.4 0 64 28.6 64 64v640c0 35.4-28.6 64-64 64h-640zM192 192h512v-128h-512c-35.4 0-64 28.6-64 64s28.6 64 64 64zM256 672c0 17.6 14.4 32 32 32h384c17.6 0 32-14.4 32-32s-14.4-32-32-32h-384c-17.6 0-32 14.4-32 32zM288 576h384c17.6 0 32-14.4 32-32s-14.4-32-32-32h-384c-17.6 0-32 14.4-32 32s14.4 32 32 32z" />
<glyph unicode="&#xe999;" glyph-name="fa-bookmark" horiz-adv-x="768" d="M0 864v-879.4c0-26.8 21.8-48.6 48.6-48.6 10 0 19.8 3 28 8.8l307.4 215.2 307.4-215.2c8.2-5.8 18-8.8 28-8.8 26.8 0 48.6 21.8 48.6 48.6v879.4c0 53-43 96-96 96h-576c-53 0-96-43-96-96z" />
<glyph unicode="&#xe99a;" glyph-name="fa-border-all" horiz-adv-x="896" d="M768 768v-256h-256v256h256zM768 384v-256h-256v256h256zM384 512h-256v256h256v-256zM128 384h256v-256h-256v256zM128 896c-70.6 0-128-57.4-128-128v-640c0-70.6 57.4-128 128-128h640c70.6 0 128 57.4 128 128v640c0 70.6-57.4 128-128 128h-640z" />
<glyph unicode="&#xe99b;" glyph-name="fa-border-none" horiz-adv-x="896" d="M64 0c-35.346 0-64 28.654-64 64s28.654 64 64 64v0c35.346 0 64-28.654 64-64s-28.654-64-64-64v0zM256 128c35.346 0 64-28.654 64-64s-28.654-64-64-64v0c-35.346 0-64 28.654-64 64s28.654 64 64 64v0zM256 896c35.346 0 64-28.654 64-64s-28.654-64-64-64v0c-35.346 0-64 28.654-64 64s28.654 64 64 64v0zM256 384c-35.346 0-64 28.654-64 64s28.654 64 64 64v0c35.346 0 64-28.654 64-64s-28.654-64-64-64v0zM640 128c35.346 0 64-28.654 64-64s-28.654-64-64-64v0c-35.346 0-64 28.654-64 64s28.654 64 64 64v0zM640 768c-35.346 0-64 28.654-64 64s28.654 64 64 64v0c35.346 0 64-28.654 64-64s-28.654-64-64-64v0zM640 512c35.346 0 64-28.654 64-64s-28.654-64-64-64v0c-35.346 0-64 28.654-64 64s28.654 64 64 64v0zM448 0c-35.346 0-64 28.654-64 64s28.654 64 64 64v0c35.346 0 64-28.654 64-64s-28.654-64-64-64v0zM448 896c35.346 0 64-28.654 64-64s-28.654-64-64-64v0c-35.346 0-64 28.654-64 64s28.654 64 64 64v0zM448 384c-35.346 0-64 28.654-64 64s28.654 64 64 64v0c35.346 0 64-28.654 64-64s-28.654-64-64-64v0zM832 128c35.346 0 64-28.654 64-64s-28.654-64-64-64v0c-35.346 0-64 28.654-64 64s28.654 64 64 64v0zM832 896c35.346 0 64-28.654 64-64s-28.654-64-64-64v0c-35.346 0-64 28.654-64 64s28.654 64 64 64v0zM64 768c-35.346 0-64 28.654-64 64s28.654 64 64 64v0c35.346 0 64-28.654 64-64s-28.654-64-64-64v0zM832 512c35.346 0 64-28.654 64-64s-28.654-64-64-64v0c-35.346 0-64 28.654-64 64s28.654 64 64 64v0zM64 384c-35.346 0-64 28.654-64 64s28.654 64 64 64v0c35.346 0 64-28.654 64-64s-28.654-64-64-64v0zM448 320c35.346 0 64-28.654 64-64s-28.654-64-64-64v0c-35.346 0-64 28.654-64 64s28.654 64 64 64v0zM832 192c-35.346 0-64 28.654-64 64s28.654 64 64 64v0c35.346 0 64-28.654 64-64s-28.654-64-64-64v0zM64 320c35.346 0 64-28.654 64-64s-28.654-64-64-64v0c-35.346 0-64 28.654-64 64s28.654 64 64 64v0zM832 576c-35.346 0-64 28.654-64 64s28.654 64 64 64v0c35.346 0 64-28.654 64-64s-28.654-64-64-64v0zM64 704c35.346 0 64-28.654 64-64s-28.654-64-64-64v0c-35.346 0-64 28.654-64 64s28.654 64 64 64v0zM448 576c-35.346 0-64 28.654-64 64s28.654 64 64 64v0c35.346 0 64-28.654 64-64s-28.654-64-64-64v0z" />
</font>
</defs>
</svg>
