<?xml version="1.0" standalone="no"?>
<!DOCTYPE svg PUBLIC "-//W3C//DTD SVG 1.1//EN" "http://www.w3.org/Graphics/SVG/1.1/DTD/svg11.dtd" >
<svg xmlns="http://www.w3.org/2000/svg">
<defs>
  <font id="wu-icon" horiz-adv-x="1000">
    <font-face font-family="wu-icon"
      units-per-em="1000" ascent="1000"
      descent="0" />
    <missing-glyph horiz-adv-x="0" />
    <glyph glyph-name="wc-add-comment-count-1"
      unicode="&#xEA01;"
      horiz-adv-x="1000" d="M750 850A100 100 0 0 0 850 750V350A100 100 0 0 0 750 250H373.59375A100 100 0 0 1 328.875 239.4375L150 150V750A100 100 0 0 0 250 850z" />
    <glyph glyph-name="wc-add-comment-count-1-1"
      unicode="&#x77;&#x63;&#x2D;&#x61;&#x64;&#x64;&#x2D;&#x63;&#x6F;&#x6D;&#x6D;&#x65;&#x6E;&#x74;&#x2D;&#x63;&#x6F;&#x75;&#x6E;&#x74;&#x2D;&#x31;"
      horiz-adv-x="1000" d="M750 850A100 100 0 0 0 850 750V350A100 100 0 0 0 750 250H373.59375A100 100 0 0 1 328.875 239.4375L150 150V750A100 100 0 0 0 250 850z" />
    <glyph glyph-name="wc-add-comment-count-2"
      unicode="&#xEA02;"
      horiz-adv-x="1000" d="M850 750A100 100 0 0 1 750 850H250A100 100 0 0 1 150 750V150L328.875 239.4375A100 100 0 0 0 373.59375 250H750A100 100 0 0 1 850 350zM250 750H750V350H373.59375L360.3125 349.5625A200 200 0 0 1 284.15625 328.875L250 311.78125z" />
    <glyph glyph-name="wc-add-comment-count-2-1"
      unicode="&#x77;&#x63;&#x2D;&#x61;&#x64;&#x64;&#x2D;&#x63;&#x6F;&#x6D;&#x6D;&#x65;&#x6E;&#x74;&#x2D;&#x63;&#x6F;&#x75;&#x6E;&#x74;&#x2D;&#x32;"
      horiz-adv-x="1000" d="M850 750A100 100 0 0 1 750 850H250A100 100 0 0 1 150 750V150L328.875 239.4375A100 100 0 0 0 373.59375 250H750A100 100 0 0 1 850 350zM250 750H750V350H373.59375L360.3125 349.5625A200 200 0 0 1 284.15625 328.875L250 311.78125z" />
    <glyph glyph-name="wc-add-comment-count-3"
      unicode="&#xEA03;"
      horiz-adv-x="1000" d="M750 850A100 100 0 0 0 850 750V350A100 100 0 0 0 750 250H373.59375A100 100 0 0 1 328.875 239.4375L150 150V750A100 100 0 0 0 250 850zM500.09375 739.5Q555.59375 739.5 583.59375 695Q612.09375 651 612.09375 567C612.09375 483 602.59375 468.15625 583.59375 438.5Q555.59375 394 500.09375 394C444.59375 394 435.09375 408.8437500000001 416.09375 438.5Q388.09375 483 388.09375 567C388.09375 651 397.4375 665.65625 416.09375 695Q444.59375 739.5 500.09375 739.5M500.09375 703Q467.5937500000001 703 451.59375 671Q436.09375 639 436.09375 567C436.09375 495.0000000000001 441.25 484.1562500000001 451.59375 462.5Q467.5937500000001 430.5 500.09375 430.5Q532.09375 430.5 548.09375 462.5Q564.0937500000001 495 564.0937500000001 567Q564.0937500000001 638.5 548.09375 670.5Q532.09375 703 500.09375 703" />
    <glyph glyph-name="wc-add-comment-count-3-1"
      unicode="&#x77;&#x63;&#x2D;&#x61;&#x64;&#x64;&#x2D;&#x63;&#x6F;&#x6D;&#x6D;&#x65;&#x6E;&#x74;&#x2D;&#x63;&#x6F;&#x75;&#x6E;&#x74;&#x2D;&#x33;"
      horiz-adv-x="1000" d="M750 850A100 100 0 0 0 850 750V350A100 100 0 0 0 750 250H373.59375A100 100 0 0 1 328.875 239.4375L150 150V750A100 100 0 0 0 250 850zM500.09375 739.5Q555.59375 739.5 583.59375 695Q612.09375 651 612.09375 567C612.09375 483 602.59375 468.15625 583.59375 438.5Q555.59375 394 500.09375 394C444.59375 394 435.09375 408.8437500000001 416.09375 438.5Q388.09375 483 388.09375 567C388.09375 651 397.4375 665.65625 416.09375 695Q444.59375 739.5 500.09375 739.5M500.09375 703Q467.5937500000001 703 451.59375 671Q436.09375 639 436.09375 567C436.09375 495.0000000000001 441.25 484.1562500000001 451.59375 462.5Q467.5937500000001 430.5 500.09375 430.5Q532.09375 430.5 548.09375 462.5Q564.0937500000001 495 564.0937500000001 567Q564.0937500000001 638.5 548.09375 670.5Q532.09375 703 500.09375 703" />
    <glyph glyph-name="wc-add-comment-count"
      unicode="&#xEA04;"
      horiz-adv-x="1000" d="M850 750A100 100 0 0 1 750 850H250A100 100 0 0 1 150 750V150L328.875 239.4375A100 100 0 0 0 373.59375 250H750A100 100 0 0 1 850 350zM250 750H750V350H373.59375L360.3125 349.5625A200 200 0 0 1 284.15625 328.875L250 311.78125zM550 700H450.0000000000001V600H350.0000000000001V500H450.0000000000001V400H550V500H650V600H550z" />
    <glyph glyph-name="wc-add-comment-count-1"
      unicode="&#x77;&#x63;&#x2D;&#x61;&#x64;&#x64;&#x2D;&#x63;&#x6F;&#x6D;&#x6D;&#x65;&#x6E;&#x74;&#x2D;&#x63;&#x6F;&#x75;&#x6E;&#x74;"
      horiz-adv-x="1000" d="M850 750A100 100 0 0 1 750 850H250A100 100 0 0 1 150 750V150L328.875 239.4375A100 100 0 0 0 373.59375 250H750A100 100 0 0 1 850 350zM250 750H750V350H373.59375L360.3125 349.5625A200 200 0 0 1 284.15625 328.875L250 311.78125zM550 700H450.0000000000001V600H350.0000000000001V500H450.0000000000001V400H550V500H650V600H550z" />
    <glyph glyph-name="wc-add-ons-1"
      unicode="&#xEA05;"
      horiz-adv-x="1000" d="M500.03125 958.3593682056394A83.34375 83.34375 0 0 0 540.4062500000001 802.0781182056394Q541.6875000000001 797.0781182056394 541.7187500000001 791.6718682056394V770.8281182056394L629.4375000000001 814.7031182056394A83.4375 83.4375 0 0 0 703.96875 814.7031182056394L837.75 747.7968682056394C857.40625 737.9531182056394 850.40625 708.3281182056394 828.4375000000001 708.3281182056394H541.6875000000001V458.3281182056393H708.3437500000001A41.65625 41.65625 0 0 1 708.3437500000001 541.6406182056393H666.6875000000001A41.65625 41.65625 0 0 0 666.6875000000001 624.9531182056394H729.1875000000001A104.15625 104.15625 0 0 0 833.3437500000001 520.7968682056394V499.9531182056394A125 125 0 0 0 741.2500000000001 379.3281182056393A125 125 0 0 0 625.0000000000001 208.2968682056394H541.6562500000002V83.2968682056394A41.65625 41.65625 0 0 0 458.3437500000002 83.2968682056394V208.2968682056394H375.0000000000003A125 125 0 0 0 258.7500000000003 379.3281182056393A125 125 0 0 0 166.6562500000002 499.9531182056394V520.7968682056394A104.15625 104.15625 0 0 0 270.8125000000001 624.9531182056394H333.3125000000001A41.65625 41.65625 0 0 0 333.3125000000001 541.6406182056393H291.65625A41.65625 41.65625 0 0 1 291.65625 458.3281182056393H458.3125V708.3281182056393H171.5625C149.59375 708.3281182056393 142.59375 737.9531182056393 162.25 747.7968682056393L296.0625 814.7031182056394A83.4375 83.4375 0 0 0 370.59375 814.7031182056394L458.3125 770.8281182056394V791.6718682056394Q458.3125 797.0781182056394 459.625 802.0781182056394A83.34375 83.34375 0 0 0 500 958.3593682056394zM625.03125 291.6718682056395A41.65625 41.65625 0 0 1 625.03125 374.9843682056395H541.6875000000001V291.6406182056394H625.0312500000001zM375.0312500000001 375.0156182056394A41.65625 41.65625 0 0 1 375.0312500000001 291.7031182056394H458.3750000000001V375.0468682056393H375.03125z" />
    <glyph glyph-name="wc-add-ons-1-1"
      unicode="&#x77;&#x63;&#x2D;&#x61;&#x64;&#x64;&#x2D;&#x6F;&#x6E;&#x73;&#x2D;&#x31;"
      horiz-adv-x="1000" d="M500.03125 958.3593682056394A83.34375 83.34375 0 0 0 540.4062500000001 802.0781182056394Q541.6875000000001 797.0781182056394 541.7187500000001 791.6718682056394V770.8281182056394L629.4375000000001 814.7031182056394A83.4375 83.4375 0 0 0 703.96875 814.7031182056394L837.75 747.7968682056394C857.40625 737.9531182056394 850.40625 708.3281182056394 828.4375000000001 708.3281182056394H541.6875000000001V458.3281182056393H708.3437500000001A41.65625 41.65625 0 0 1 708.3437500000001 541.6406182056393H666.6875000000001A41.65625 41.65625 0 0 0 666.6875000000001 624.9531182056394H729.1875000000001A104.15625 104.15625 0 0 0 833.3437500000001 520.7968682056394V499.9531182056394A125 125 0 0 0 741.2500000000001 379.3281182056393A125 125 0 0 0 625.0000000000001 208.2968682056394H541.6562500000002V83.2968682056394A41.65625 41.65625 0 0 0 458.3437500000002 83.2968682056394V208.2968682056394H375.0000000000003A125 125 0 0 0 258.7500000000003 379.3281182056393A125 125 0 0 0 166.6562500000002 499.9531182056394V520.7968682056394A104.15625 104.15625 0 0 0 270.8125000000001 624.9531182056394H333.3125000000001A41.65625 41.65625 0 0 0 333.3125000000001 541.6406182056393H291.65625A41.65625 41.65625 0 0 1 291.65625 458.3281182056393H458.3125V708.3281182056393H171.5625C149.59375 708.3281182056393 142.59375 737.9531182056393 162.25 747.7968682056393L296.0625 814.7031182056394A83.4375 83.4375 0 0 0 370.59375 814.7031182056394L458.3125 770.8281182056394V791.6718682056394Q458.3125 797.0781182056394 459.625 802.0781182056394A83.34375 83.34375 0 0 0 500 958.3593682056394zM625.03125 291.6718682056395A41.65625 41.65625 0 0 1 625.03125 374.9843682056395H541.6875000000001V291.6406182056394H625.0312500000001zM375.0312500000001 375.0156182056394A41.65625 41.65625 0 0 1 375.0312500000001 291.7031182056394H458.3750000000001V375.0468682056393H375.03125z" />
    <glyph glyph-name="wc-add-ons-2"
      unicode="&#xEA06;"
      horiz-adv-x="1000" d="M778.7351849295379 389.578125L828.7351849295379 272.921875L957.891434929538 260.421875L862.0476849295379 177.078125L891.2039349295379 52.078125L782.8601849295379 118.734375L674.5164349295379 52.078125L703.6726849295379 177.078125L607.8289349295379 260.421875L732.8289349295379 272.921875L778.6726849295378 389.578125zM103.7351849295379 752.078125L228.7351849295379 614.578125L70.3914349295379 572.921875H899.5476849295379V414.578125C862.0476849295379 435.4218750000001 820.3914349295379 447.921875 774.5476849295379 447.921875C637.0476849295378 447.921875 524.5476849295379 335.421875 524.5476849295379 197.921875C524.5476849295379 152.0781250000001 537.0476849295378 110.421875 557.8914349295379 72.921875H149.5476849295379A83.59375 83.59375 0 0 0 66.2039349295379 156.2656250000001V572.921875L45.3601849295379 652.078125C32.8601849295379 693.734375 57.8601849295379 739.578125 95.3601849295379 752.078125H103.7039349295379zM303.7351849295379 806.234375L428.7351849295379 668.734375L307.8914349295379 635.390625L182.8914349295379 772.890625zM503.7351849295379 860.421875L628.7351849295379 722.921875L507.8914349295379 689.578125L382.8914349295379 827.078125zM828.7351849295378 947.921875L870.3914349295378 785.421875L707.8914349295378 743.765625L582.8914349295378 881.265625z" />
    <glyph glyph-name="wc-add-ons-2-1"
      unicode="&#x77;&#x63;&#x2D;&#x61;&#x64;&#x64;&#x2D;&#x6F;&#x6E;&#x73;&#x2D;&#x32;"
      horiz-adv-x="1000" d="M778.7351849295379 389.578125L828.7351849295379 272.921875L957.891434929538 260.421875L862.0476849295379 177.078125L891.2039349295379 52.078125L782.8601849295379 118.734375L674.5164349295379 52.078125L703.6726849295379 177.078125L607.8289349295379 260.421875L732.8289349295379 272.921875L778.6726849295378 389.578125zM103.7351849295379 752.078125L228.7351849295379 614.578125L70.3914349295379 572.921875H899.5476849295379V414.578125C862.0476849295379 435.4218750000001 820.3914349295379 447.921875 774.5476849295379 447.921875C637.0476849295378 447.921875 524.5476849295379 335.421875 524.5476849295379 197.921875C524.5476849295379 152.0781250000001 537.0476849295378 110.421875 557.8914349295379 72.921875H149.5476849295379A83.59375 83.59375 0 0 0 66.2039349295379 156.2656250000001V572.921875L45.3601849295379 652.078125C32.8601849295379 693.734375 57.8601849295379 739.578125 95.3601849295379 752.078125H103.7039349295379zM303.7351849295379 806.234375L428.7351849295379 668.734375L307.8914349295379 635.390625L182.8914349295379 772.890625zM503.7351849295379 860.421875L628.7351849295379 722.921875L507.8914349295379 689.578125L382.8914349295379 827.078125zM828.7351849295378 947.921875L870.3914349295378 785.421875L707.8914349295378 743.765625L582.8914349295378 881.265625z" />
    <glyph glyph-name="wc-add-ons-3"
      unicode="&#xEA07;"
      horiz-adv-x="1000" d="M0 583.3359392940038A83.34375 83.34375 0 0 1 83.34375 499.9921892940038H333.34375A83.34375 83.34375 0 0 1 416.6875 583.3359392940038V833.3359392940038A83.34375 83.34375 0 0 1 333.34375 916.6796892940038H83.34375A83.34375 83.34375 0 0 1 0 833.3359392940038zM333.34375 833.3359392940038V583.3359392940038H83.34375V833.3359392940038zM666.65625 499.9921892940038A83.34375 83.34375 0 0 0 583.3124999999999 583.3359392940038V833.3359392940038A83.34375 83.34375 0 0 0 666.65625 916.6796892940038H916.65625A83.34375 83.34375 0 0 0 1000 833.3359392940038V583.3359392940038A83.34375 83.34375 0 0 0 916.65625 499.9921892940038zM916.65625 583.3359392940038V833.3359392940038H666.65625V583.3359392940038zM625 249.9921892940038A166.65625 166.65625 0 1 1 958.34375 249.9921892940038A166.65625 166.65625 0 0 1 625 249.9921892940038M791.65625 166.6484392940038A83.34375 83.34375 0 1 0 791.65625 333.3359392940037A83.34375 83.34375 0 0 0 791.65625 166.6484392940038M41.65625 249.9921892940038A166.65625 166.65625 0 1 1 375 249.9921892940038A166.65625 166.65625 0 0 1 41.65625 249.9921892940038" />
    <glyph glyph-name="wc-add-ons-3-1"
      unicode="&#x77;&#x63;&#x2D;&#x61;&#x64;&#x64;&#x2D;&#x6F;&#x6E;&#x73;&#x2D;&#x33;"
      horiz-adv-x="1000" d="M0 583.3359392940038A83.34375 83.34375 0 0 1 83.34375 499.9921892940038H333.34375A83.34375 83.34375 0 0 1 416.6875 583.3359392940038V833.3359392940038A83.34375 83.34375 0 0 1 333.34375 916.6796892940038H83.34375A83.34375 83.34375 0 0 1 0 833.3359392940038zM333.34375 833.3359392940038V583.3359392940038H83.34375V833.3359392940038zM666.65625 499.9921892940038A83.34375 83.34375 0 0 0 583.3124999999999 583.3359392940038V833.3359392940038A83.34375 83.34375 0 0 0 666.65625 916.6796892940038H916.65625A83.34375 83.34375 0 0 0 1000 833.3359392940038V583.3359392940038A83.34375 83.34375 0 0 0 916.65625 499.9921892940038zM916.65625 583.3359392940038V833.3359392940038H666.65625V583.3359392940038zM625 249.9921892940038A166.65625 166.65625 0 1 1 958.34375 249.9921892940038A166.65625 166.65625 0 0 1 625 249.9921892940038M791.65625 166.6484392940038A83.34375 83.34375 0 1 0 791.65625 333.3359392940037A83.34375 83.34375 0 0 0 791.65625 166.6484392940038M41.65625 249.9921892940038A166.65625 166.65625 0 1 1 375 249.9921892940038A166.65625 166.65625 0 0 1 41.65625 249.9921892940038" />
    <glyph glyph-name="wc-add-ons"
      unicode="&#xEA08;"
      horiz-adv-x="1000" d="M375.015625 666.65625C398.015625 666.65625 416.671875 648 416.671875 625V458.34375C416.671875 435.34375 398.015625 416.6875 375.015625 416.6875H291.671875V333.3437499999999H208.328125V416.6875H83.328125V500.03125H333.328125V583.375H124.984375A41.65625 41.65625 0 0 0 83.328125 625.03125V791.6875C83.328125 814.6875 101.984375 833.34375 124.984375 833.34375H208.328125V916.6875H291.671875V833.34375H416.671875V750H166.671875V666.65625zM500.015625 579.15625V83.3125H666.671875V579.15625zM166.671875 249.96875V83.3125H333.328125V249.96875zM750.015625 791.65625V83.3125H916.671875V791.65625z" />
    <glyph glyph-name="wc-add-ons-1"
      unicode="&#x77;&#x63;&#x2D;&#x61;&#x64;&#x64;&#x2D;&#x6F;&#x6E;&#x73;"
      horiz-adv-x="1000" d="M375.015625 666.65625C398.015625 666.65625 416.671875 648 416.671875 625V458.34375C416.671875 435.34375 398.015625 416.6875 375.015625 416.6875H291.671875V333.3437499999999H208.328125V416.6875H83.328125V500.03125H333.328125V583.375H124.984375A41.65625 41.65625 0 0 0 83.328125 625.03125V791.6875C83.328125 814.6875 101.984375 833.34375 124.984375 833.34375H208.328125V916.6875H291.671875V833.34375H416.671875V750H166.671875V666.65625zM500.015625 579.15625V83.3125H666.671875V579.15625zM166.671875 249.96875V83.3125H333.328125V249.96875zM750.015625 791.65625V83.3125H916.671875V791.65625z" />
    <glyph glyph-name="wc-add-subtract-logic-1"
      unicode="&#xEA09;"
      horiz-adv-x="1000" d="M291.65625 541.65625H708.3125V458.3125H291.65625zM500 875C293 875 125 707 125 500S293.0000000000001 125 500 125S875 293 875 500S707 875 500 875M500 200C334.625 200 200 334.625 200 500S334.625 800 500 800S800 665.375 800 500S665.375 200 500 200" />
    <glyph glyph-name="wc-add-subtract-logic-1-1"
      unicode="&#x77;&#x63;&#x2D;&#x61;&#x64;&#x64;&#x2D;&#x73;&#x75;&#x62;&#x74;&#x72;&#x61;&#x63;&#x74;&#x2D;&#x6C;&#x6F;&#x67;&#x69;&#x63;&#x2D;&#x31;"
      horiz-adv-x="1000" d="M291.65625 541.65625H708.3125V458.3125H291.65625zM500 875C293 875 125 707 125 500S293.0000000000001 125 500 125S875 293 875 500S707 875 500 875M500 200C334.625 200 200 334.625 200 500S334.625 800 500 800S800 665.375 800 500S665.375 200 500 200" />
    <glyph glyph-name="wc-add-subtract-logic-2"
      unicode="&#xEA0A;"
      horiz-adv-x="1000" d="M500 125C292.90625 125 125 292.90625 125 500S292.90625 875 500 875S875 707.09375 875 500S707.09375 125 500 125M666.65625 541.65625H333.3125V458.3125H666.65625z" />
    <glyph glyph-name="wc-add-subtract-logic-2-1"
      unicode="&#x77;&#x63;&#x2D;&#x61;&#x64;&#x64;&#x2D;&#x73;&#x75;&#x62;&#x74;&#x72;&#x61;&#x63;&#x74;&#x2D;&#x6C;&#x6F;&#x67;&#x69;&#x63;&#x2D;&#x32;"
      horiz-adv-x="1000" d="M500 125C292.90625 125 125 292.90625 125 500S292.90625 875 500 875S875 707.09375 875 500S707.09375 125 500 125M666.65625 541.65625H333.3125V458.3125H666.65625z" />
    <glyph glyph-name="wc-add-subtract-logic-3"
      unicode="&#xEA0B;"
      horiz-adv-x="1000" d="M500 875C707.09375 875 875 707.09375 875 500S707.09375 125 500 125S125 292.90625 125 500S292.90625 875 500 875M537.5 687.5H462.4999999999999V537.5H312.5V462.5H462.5V312.5H537.5V462.5H687.5V537.5H537.5z" />
    <glyph glyph-name="wc-add-subtract-logic-3-1"
      unicode="&#x77;&#x63;&#x2D;&#x61;&#x64;&#x64;&#x2D;&#x73;&#x75;&#x62;&#x74;&#x72;&#x61;&#x63;&#x74;&#x2D;&#x6C;&#x6F;&#x67;&#x69;&#x63;&#x2D;&#x33;"
      horiz-adv-x="1000" d="M500 875C707.09375 875 875 707.09375 875 500S707.09375 125 500 125S125 292.90625 125 500S292.90625 875 500 875M537.5 687.5H462.4999999999999V537.5H312.5V462.5H462.5V312.5H537.5V462.5H687.5V537.5H537.5z" />
    <glyph glyph-name="wc-add-subtract-logic"
      unicode="&#xEA0C;"
      horiz-adv-x="1000" d="M537.5 687.5H462.4999999999999V537.5H312.5V462.5H462.5V312.5H537.5V462.5H687.5V537.5H537.5zM500 875C293 875 125 707 125 500S293.0000000000001 125 500 125S875 293 875 500S707 875 500 875M500 200C334.625 200 200 334.625 200 500S334.625 800 500 800S800 665.375 800 500S665.375 200 500 200" />
    <glyph glyph-name="wc-add-subtract-logic-1"
      unicode="&#x77;&#x63;&#x2D;&#x61;&#x64;&#x64;&#x2D;&#x73;&#x75;&#x62;&#x74;&#x72;&#x61;&#x63;&#x74;&#x2D;&#x6C;&#x6F;&#x67;&#x69;&#x63;"
      horiz-adv-x="1000" d="M537.5 687.5H462.4999999999999V537.5H312.5V462.5H462.5V312.5H537.5V462.5H687.5V537.5H537.5zM500 875C293 875 125 707 125 500S293.0000000000001 125 500 125S875 293 875 500S707 875 500 875M500 200C334.625 200 200 334.625 200 500S334.625 800 500 800S800 665.375 800 500S665.375 200 500 200" />
    <glyph glyph-name="wc-admin-share"
      unicode="&#xEA0D;"
      horiz-adv-x="1000" d="M971.5 27.0000000000001H681.5V192.5000000000001L498.4999999999999 383.5000000000001L318 192.5V26.9999999999999H28.4999999999999V317.0000000000001H238.5L429.5 508V648A169.6875 169.6875 0 0 0 328.5 803C328.5 897 405 973 498.5 973S668.5 896.5 668.5 803C668.5 735.5 628.5 674.5 567.5 648V508L758.5000000000002 317.0000000000001H971.5zM719 64.5000000000001H934V279.5000000000001H743L530 492.5000000000001V674L542.5 678.5A132.1875 132.1875 0 0 1 631 803.5C631 876.5 571.5 936 498.4999999999999 936S366 876.5 366 803.5A133.125 133.125 0 0 1 454.4999999999999 678.5L466.9999999999999 674V492.5000000000001L254 279.5000000000002H65.9999999999999V64.5000000000002H281V207.5000000000001L498.5 438.0000000000001L719.5 207.5000000000001V64.5000000000001z" />
    <glyph glyph-name="wc-admin-share-1"
      unicode="&#x77;&#x63;&#x2D;&#x61;&#x64;&#x6D;&#x69;&#x6E;&#x2D;&#x73;&#x68;&#x61;&#x72;&#x65;"
      horiz-adv-x="1000" d="M971.5 27.0000000000001H681.5V192.5000000000001L498.4999999999999 383.5000000000001L318 192.5V26.9999999999999H28.4999999999999V317.0000000000001H238.5L429.5 508V648A169.6875 169.6875 0 0 0 328.5 803C328.5 897 405 973 498.5 973S668.5 896.5 668.5 803C668.5 735.5 628.5 674.5 567.5 648V508L758.5000000000002 317.0000000000001H971.5zM719 64.5000000000001H934V279.5000000000001H743L530 492.5000000000001V674L542.5 678.5A132.1875 132.1875 0 0 1 631 803.5C631 876.5 571.5 936 498.4999999999999 936S366 876.5 366 803.5A133.125 133.125 0 0 1 454.4999999999999 678.5L466.9999999999999 674V492.5000000000001L254 279.5000000000002H65.9999999999999V64.5000000000002H281V207.5000000000001L498.5 438.0000000000001L719.5 207.5000000000001V64.5000000000001z" />
    <glyph glyph-name="wc-admin"
      unicode="&#xEA0E;"
      horiz-adv-x="1000" d="M500 1000L50 800V545.46875C50 293.1875 249.15625 57.28125 500 0C750.84375 57.28125 950 293.1874999999999 950 545.46875V800zM500 850C576.65625 850 650 780.6875 650 700S576.65625 550 500 550S350 619.3125 350 700S423.34375 850 500 850M749.375 272.7187500000001C690.5625 188.6250000000001 602.5625 125.4375000000001 500 94.5312500000002C397.4375 125.4375000000002 309.4375000000001 188.6250000000001 250.625 272.7187500000001A453.1250000000001 453.1250000000001 0 0 0 208.34375 342.2812500000001C208.34375 417.28125 340.09375 478.6562500000001 500 478.6562500000001S791.65625 418.6562500000003 791.65625 342.2812500000001A456.25 456.25 0 0 0 749.3749999999999 272.7187500000001" />
    <glyph glyph-name="wc-admin-1"
      unicode="&#x77;&#x63;&#x2D;&#x61;&#x64;&#x6D;&#x69;&#x6E;"
      horiz-adv-x="1000" d="M500 1000L50 800V545.46875C50 293.1875 249.15625 57.28125 500 0C750.84375 57.28125 950 293.1874999999999 950 545.46875V800zM500 850C576.65625 850 650 780.6875 650 700S576.65625 550 500 550S350 619.3125 350 700S423.34375 850 500 850M749.375 272.7187500000001C690.5625 188.6250000000001 602.5625 125.4375000000001 500 94.5312500000002C397.4375 125.4375000000002 309.4375000000001 188.6250000000001 250.625 272.7187500000001A453.1250000000001 453.1250000000001 0 0 0 208.34375 342.2812500000001C208.34375 417.28125 340.09375 478.6562500000001 500 478.6562500000001S791.65625 418.6562500000003 791.65625 342.2812500000001A456.25 456.25 0 0 0 749.3749999999999 272.7187500000001" />
    <glyph glyph-name="wc-advanced-matrix-1"
      unicode="&#xEA0F;"
      horiz-adv-x="1000" d="M875 458.359375H125A41.65625 41.65625 0 0 0 83.34375 500.015625V916.671875C83.34375 939.671875 102 958.328125 125 958.328125H875C898 958.328125 916.65625 939.671875 916.65625 916.671875V500.015625C916.65625 477.015625 897.9999999999999 458.359375 875 458.359375M166.65625 562.515625C166.65625 551.015625 175.96875 541.671875 187.5 541.671875H395.84375A20.84375 20.84375 0 0 1 416.6875 562.515625V604.171875A20.84375 20.84375 0 0 1 395.84375 625.015625H333.34375V791.671875H395.84375A20.84375 20.84375 0 0 1 416.6875 812.515625V854.171875A20.84375 20.84375 0 0 1 395.84375 875.015625H187.5A20.84375 20.84375 0 0 1 166.65625 854.171875V812.515625C166.65625 801.015625 175.96875 791.671875 187.5 791.671875H250V625.015625H187.5A20.84375 20.84375 0 0 1 166.65625 604.171875zM250 41.671875A166.65625 166.65625 0 1 0 250 374.984375A166.65625 166.65625 0 0 0 250 41.671875M916.65625 62.515625H625V354.171875H916.65625zM687.5 291.671875V125.015625H854.15625V291.671875z" />
    <glyph glyph-name="wc-advanced-matrix-1-1"
      unicode="&#x77;&#x63;&#x2D;&#x61;&#x64;&#x76;&#x61;&#x6E;&#x63;&#x65;&#x64;&#x2D;&#x6D;&#x61;&#x74;&#x72;&#x69;&#x78;&#x2D;&#x31;"
      horiz-adv-x="1000" d="M875 458.359375H125A41.65625 41.65625 0 0 0 83.34375 500.015625V916.671875C83.34375 939.671875 102 958.328125 125 958.328125H875C898 958.328125 916.65625 939.671875 916.65625 916.671875V500.015625C916.65625 477.015625 897.9999999999999 458.359375 875 458.359375M166.65625 562.515625C166.65625 551.015625 175.96875 541.671875 187.5 541.671875H395.84375A20.84375 20.84375 0 0 1 416.6875 562.515625V604.171875A20.84375 20.84375 0 0 1 395.84375 625.015625H333.34375V791.671875H395.84375A20.84375 20.84375 0 0 1 416.6875 812.515625V854.171875A20.84375 20.84375 0 0 1 395.84375 875.015625H187.5A20.84375 20.84375 0 0 1 166.65625 854.171875V812.515625C166.65625 801.015625 175.96875 791.671875 187.5 791.671875H250V625.015625H187.5A20.84375 20.84375 0 0 1 166.65625 604.171875zM250 41.671875A166.65625 166.65625 0 1 0 250 374.984375A166.65625 166.65625 0 0 0 250 41.671875M916.65625 62.515625H625V354.171875H916.65625zM687.5 291.671875V125.015625H854.15625V291.671875z" />
    <glyph glyph-name="wc-advanced-matrix"
      unicode="&#xEA10;"
      horiz-adv-x="1000" d="M458.34375 895.8359392940038C458.34375 907.3359392940038 467.6875 916.6796892940038 479.1875 916.6796892940038H520.8437499999999C532.3437499999999 916.6796892940038 541.6875 907.3671892940038 541.6875 895.8359392940038V104.1796892940039A20.84375 20.84375 0 0 0 520.8437499999999 83.3359392940038H479.1875A20.84375 20.84375 0 0 0 458.34375 104.1796892940039zM375 249.9921892940038A166.65625 166.65625 0 1 0 41.65625 249.9921892940038A166.65625 166.65625 0 0 0 375 249.9921892940038M208.34375 166.6484392940038A83.34375 83.34375 0 1 1 208.34375 333.3359392940037A83.34375 83.34375 0 0 1 208.34375 166.6484392940038M208.34375 583.3359392940038A166.65625 166.65625 0 1 1 208.34375 916.6484392940038A166.65625 166.65625 0 0 1 208.34375 583.3359392940038M958.34375 749.9921892940038A166.65625 166.65625 0 1 0 625.03125 749.9921892940038A166.65625 166.65625 0 0 0 958.34375 749.9921892940038M791.6562500000001 666.6484392940038A83.34375 83.34375 0 1 1 791.6562500000001 833.3359392940038A83.34375 83.34375 0 0 1 791.6562500000001 666.6484392940038M791.65625 83.3359392940038A166.65625 166.65625 0 1 1 791.65625 416.679689294004A166.65625 166.65625 0 0 1 791.65625 83.3359392940038M875 249.9921892940038A83.34375 83.34375 0 1 0 708.3125 249.9921892940038A83.34375 83.34375 0 0 0 875 249.9921892940038" />
    <glyph glyph-name="wc-advanced-matrix-1"
      unicode="&#x77;&#x63;&#x2D;&#x61;&#x64;&#x76;&#x61;&#x6E;&#x63;&#x65;&#x64;&#x2D;&#x6D;&#x61;&#x74;&#x72;&#x69;&#x78;"
      horiz-adv-x="1000" d="M458.34375 895.8359392940038C458.34375 907.3359392940038 467.6875 916.6796892940038 479.1875 916.6796892940038H520.8437499999999C532.3437499999999 916.6796892940038 541.6875 907.3671892940038 541.6875 895.8359392940038V104.1796892940039A20.84375 20.84375 0 0 0 520.8437499999999 83.3359392940038H479.1875A20.84375 20.84375 0 0 0 458.34375 104.1796892940039zM375 249.9921892940038A166.65625 166.65625 0 1 0 41.65625 249.9921892940038A166.65625 166.65625 0 0 0 375 249.9921892940038M208.34375 166.6484392940038A83.34375 83.34375 0 1 1 208.34375 333.3359392940037A83.34375 83.34375 0 0 1 208.34375 166.6484392940038M208.34375 583.3359392940038A166.65625 166.65625 0 1 1 208.34375 916.6484392940038A166.65625 166.65625 0 0 1 208.34375 583.3359392940038M958.34375 749.9921892940038A166.65625 166.65625 0 1 0 625.03125 749.9921892940038A166.65625 166.65625 0 0 0 958.34375 749.9921892940038M791.6562500000001 666.6484392940038A83.34375 83.34375 0 1 1 791.6562500000001 833.3359392940038A83.34375 83.34375 0 0 1 791.6562500000001 666.6484392940038M791.65625 83.3359392940038A166.65625 166.65625 0 1 1 791.65625 416.679689294004A166.65625 166.65625 0 0 1 791.65625 83.3359392940038M875 249.9921892940038A83.34375 83.34375 0 1 0 708.3125 249.9921892940038A83.34375 83.34375 0 0 0 875 249.9921892940038" />
    <glyph glyph-name="wc-ai"
      unicode="&#xEA11;"
      horiz-adv-x="1000" d="M177.1093750000001 519.109375C300.8281250000001 596.234375 398.0156250000001 711.890625 454.8593750000001 849.640625L475.6093750000001 899.953125A26.15625 26.15625 0 0 0 524.390625 899.953125L545.1406250000002 849.640625C601.984375 711.890625 699.1718750000002 596.234375 822.890625 519.109375A22.75 22.75 0 0 0 822.890625 480.8906249999999C699.171875 403.765625 601.953125 288.109375 545.1406250000002 150.359375L524.390625 100.0468749999999A26.15625 26.15625 0 0 0 475.6093750000001 100.0468749999999L454.8593750000001 150.359375C398.0156250000001 288.140625 300.8281250000001 403.765625 177.1093750000001 480.8906249999998A22.75 22.75 0 0 0 177.1093750000001 519.109375" />
    <glyph glyph-name="wc-ai-1"
      unicode="&#x77;&#x63;&#x2D;&#x61;&#x69;"
      horiz-adv-x="1000" d="M177.1093750000001 519.109375C300.8281250000001 596.234375 398.0156250000001 711.890625 454.8593750000001 849.640625L475.6093750000001 899.953125A26.15625 26.15625 0 0 0 524.390625 899.953125L545.1406250000002 849.640625C601.984375 711.890625 699.1718750000002 596.234375 822.890625 519.109375A22.75 22.75 0 0 0 822.890625 480.8906249999999C699.171875 403.765625 601.953125 288.109375 545.1406250000002 150.359375L524.390625 100.0468749999999A26.15625 26.15625 0 0 0 475.6093750000001 100.0468749999999L454.8593750000001 150.359375C398.0156250000001 288.140625 300.8281250000001 403.765625 177.1093750000001 480.8906249999998A22.75 22.75 0 0 0 177.1093750000001 519.109375" />
    <glyph glyph-name="wc-analysis"
      unicode="&#xEA12;"
      horiz-adv-x="1000" d="M943.5 202.5H134V860.5C134 867 127 873 118.5 873S103 867.5 103 860.5V202H57.5C49 202 42 196.5000000000001 42 189.5S49 177.0000000000001 57.5 177.0000000000001H103V139.5000000000001C103 132.5000000000001 110 127.0000000000001 118.5 127.0000000000001S134 132.5000000000001 134 139.5000000000001V177.0000000000001H943C951.5 177.0000000000001 958 182.5 958 189.5S951 202 943 202zM165 254S168 253.5 169.5 253.5C174.5 253.5 179 256 181 260L298.5000000000001 499.9999999999999L379.5000000000001 411.4999999999999C382.5000000000001 408.4999999999999 387.0000000000001 407 391.5000000000001 407.4999999999999S400.0000000000001 410.9999999999999 401.5000000000001 414.4999999999999L488 625.5L537 566C539.4999999999999 563 544 561 548.4999999999999 561.5A12.1875 12.1875 0 0 1 558.9999999999999 567.5L673.4999999999999 777.5L788 567.5C790 563.5 794.4999999999999 561.5 800 561.5C805 561.5 809.4999999999999 564 811.5 568L906 773.5C908.4999999999998 778.5 905 784.5 898.5 786.5S885.0000000000001 786 882.5 780.5L799 598.5L685.4999999999999 806.5C681.4999999999999 814 666.4999999999999 814 662.4999999999999 806.5L545.9999999999999 592.5L495.4999999999999 654C492.9999999999999 657.5 487.9999999999999 659 483.4999999999999 658.5A11.875 11.875 0 0 1 473.4999999999999 651.5L386.4999999999999 439L306.4999999999999 526A14.6875 14.6875 0 0 1 294.9999999999999 530A11.25 11.25 0 0 1 284.9999999999999 523.5L158.9999999999999 266.5C156.4999999999999 261.5 159.4999999999999 255.5 165.9999999999999 253.5zM834.5 495L752.5 383.5L636.5 596.5C634.0000000000001 600.5 629.0000000000001 603 623 602.5C617.5000000000001 602 613 598 612.5000000000001 594L583 425.5L470.5000000000001 448.5000000000001A14.0625 14.0625 0 0 1 457.5 445.0000000000001L332.5 317.5000000000002L208 241.5000000000002C202.5 238.0000000000002 201.5 231.5000000000002 205.5 227.5000000000002C208 225.0000000000002 211.5 223.5000000000002 215.5 223.5000000000002C218 223.5000000000002 221 224.0000000000001 223 225.5000000000002L349.0000000000001 302.5000000000001S350.5000000000001 303.5000000000001 351.5000000000001 304.5000000000001L472.5000000000001 427.5000000000001L590.5000000000001 403.5000000000001C594 402.5000000000001 597.5000000000001 403.5000000000001 600.5000000000001 405.0000000000001S605.5000000000001 409.0000000000001 606 412.0000000000001L631.5 557L740 358.5000000000001C742 355.0000000000001 746 352.5000000000001 750.5 352.5000000000001S759.5 354.5000000000001 762 357.5000000000001L856.5 485.9999999999999C859.9999999999999 491 857.9999999999999 497 852.5 500A14.25 14.25 0 0 1 835.5 496.5000000000001z" />
    <glyph glyph-name="wc-analysis-1"
      unicode="&#x77;&#x63;&#x2D;&#x61;&#x6E;&#x61;&#x6C;&#x79;&#x73;&#x69;&#x73;"
      horiz-adv-x="1000" d="M943.5 202.5H134V860.5C134 867 127 873 118.5 873S103 867.5 103 860.5V202H57.5C49 202 42 196.5000000000001 42 189.5S49 177.0000000000001 57.5 177.0000000000001H103V139.5000000000001C103 132.5000000000001 110 127.0000000000001 118.5 127.0000000000001S134 132.5000000000001 134 139.5000000000001V177.0000000000001H943C951.5 177.0000000000001 958 182.5 958 189.5S951 202 943 202zM165 254S168 253.5 169.5 253.5C174.5 253.5 179 256 181 260L298.5000000000001 499.9999999999999L379.5000000000001 411.4999999999999C382.5000000000001 408.4999999999999 387.0000000000001 407 391.5000000000001 407.4999999999999S400.0000000000001 410.9999999999999 401.5000000000001 414.4999999999999L488 625.5L537 566C539.4999999999999 563 544 561 548.4999999999999 561.5A12.1875 12.1875 0 0 1 558.9999999999999 567.5L673.4999999999999 777.5L788 567.5C790 563.5 794.4999999999999 561.5 800 561.5C805 561.5 809.4999999999999 564 811.5 568L906 773.5C908.4999999999998 778.5 905 784.5 898.5 786.5S885.0000000000001 786 882.5 780.5L799 598.5L685.4999999999999 806.5C681.4999999999999 814 666.4999999999999 814 662.4999999999999 806.5L545.9999999999999 592.5L495.4999999999999 654C492.9999999999999 657.5 487.9999999999999 659 483.4999999999999 658.5A11.875 11.875 0 0 1 473.4999999999999 651.5L386.4999999999999 439L306.4999999999999 526A14.6875 14.6875 0 0 1 294.9999999999999 530A11.25 11.25 0 0 1 284.9999999999999 523.5L158.9999999999999 266.5C156.4999999999999 261.5 159.4999999999999 255.5 165.9999999999999 253.5zM834.5 495L752.5 383.5L636.5 596.5C634.0000000000001 600.5 629.0000000000001 603 623 602.5C617.5000000000001 602 613 598 612.5000000000001 594L583 425.5L470.5000000000001 448.5000000000001A14.0625 14.0625 0 0 1 457.5 445.0000000000001L332.5 317.5000000000002L208 241.5000000000002C202.5 238.0000000000002 201.5 231.5000000000002 205.5 227.5000000000002C208 225.0000000000002 211.5 223.5000000000002 215.5 223.5000000000002C218 223.5000000000002 221 224.0000000000001 223 225.5000000000002L349.0000000000001 302.5000000000001S350.5000000000001 303.5000000000001 351.5000000000001 304.5000000000001L472.5000000000001 427.5000000000001L590.5000000000001 403.5000000000001C594 402.5000000000001 597.5000000000001 403.5000000000001 600.5000000000001 405.0000000000001S605.5000000000001 409.0000000000001 606 412.0000000000001L631.5 557L740 358.5000000000001C742 355.0000000000001 746 352.5000000000001 750.5 352.5000000000001S759.5 354.5000000000001 762 357.5000000000001L856.5 485.9999999999999C859.9999999999999 491 857.9999999999999 497 852.5 500A14.25 14.25 0 0 1 835.5 496.5000000000001z" />
    <glyph glyph-name="wc-analytics-1"
      unicode="&#xEA13;"
      horiz-adv-x="1000" d="M0 937.5A62.5 62.5 0 0 0 62.5 1000H375A62.5 62.5 0 0 0 437.5 937.5V562.5A62.5 62.5 0 0 0 375 500H62.5A62.5 62.5 0 0 0 0 562.5zM562.5 562.5A62.5 62.5 0 0 0 625 625H937.5A62.5 62.5 0 0 0 1000 562.5V62.5A62.5 62.5 0 0 0 937.5 0H625A62.5 62.5 0 0 0 562.5 62.5zM562.5 937.5A62.5 62.5 0 0 0 625 1000H937.5A62.5 62.5 0 0 0 1000 937.5V812.5A62.5 62.5 0 0 0 937.5 750H625A62.5 62.5 0 0 0 562.5 812.5zM0 312.5A62.5 62.5 0 0 0 62.5 375H375A62.5 62.5 0 0 0 437.5 312.5V62.5A62.5 62.5 0 0 0 375 0H62.5A62.5 62.5 0 0 0 0 62.5z" />
    <glyph glyph-name="wc-analytics-1-1"
      unicode="&#x77;&#x63;&#x2D;&#x61;&#x6E;&#x61;&#x6C;&#x79;&#x74;&#x69;&#x63;&#x73;&#x2D;&#x31;"
      horiz-adv-x="1000" d="M0 937.5A62.5 62.5 0 0 0 62.5 1000H375A62.5 62.5 0 0 0 437.5 937.5V562.5A62.5 62.5 0 0 0 375 500H62.5A62.5 62.5 0 0 0 0 562.5zM562.5 562.5A62.5 62.5 0 0 0 625 625H937.5A62.5 62.5 0 0 0 1000 562.5V62.5A62.5 62.5 0 0 0 937.5 0H625A62.5 62.5 0 0 0 562.5 62.5zM562.5 937.5A62.5 62.5 0 0 0 625 1000H937.5A62.5 62.5 0 0 0 1000 937.5V812.5A62.5 62.5 0 0 0 937.5 750H625A62.5 62.5 0 0 0 562.5 812.5zM0 312.5A62.5 62.5 0 0 0 62.5 375H375A62.5 62.5 0 0 0 437.5 312.5V62.5A62.5 62.5 0 0 0 375 0H62.5A62.5 62.5 0 0 0 0 62.5z" />
    <glyph glyph-name="wc-analytics-2"
      unicode="&#xEA14;"
      horiz-adv-x="1000" d="M0 968.75A31.25 31.25 0 0 0 31.25 1000H968.75A31.25 31.25 0 0 0 1000 968.75V781.25A31.25 31.25 0 0 0 968.75 750H31.25A31.25 31.25 0 0 0 0 781.25zM375 593.75A31.25 31.25 0 0 0 406.25 625H968.75A31.25 31.25 0 0 0 1000 593.75V406.25A31.25 31.25 0 0 0 968.75 375H406.25A31.25 31.25 0 0 0 375 406.25zM0 593.75A31.25 31.25 0 0 0 31.25 625H218.75A31.25 31.25 0 0 0 250 593.75V406.25A31.25 31.25 0 0 0 218.75 375H31.25A31.25 31.25 0 0 0 0 406.25zM0 218.75A31.25 31.25 0 0 0 31.25 250H968.75A31.25 31.25 0 0 0 1000 218.75V31.25A31.25 31.25 0 0 0 968.75 0H31.25A31.25 31.25 0 0 0 0 31.25z" />
    <glyph glyph-name="wc-analytics-2-1"
      unicode="&#x77;&#x63;&#x2D;&#x61;&#x6E;&#x61;&#x6C;&#x79;&#x74;&#x69;&#x63;&#x73;&#x2D;&#x32;"
      horiz-adv-x="1000" d="M0 968.75A31.25 31.25 0 0 0 31.25 1000H968.75A31.25 31.25 0 0 0 1000 968.75V781.25A31.25 31.25 0 0 0 968.75 750H31.25A31.25 31.25 0 0 0 0 781.25zM375 593.75A31.25 31.25 0 0 0 406.25 625H968.75A31.25 31.25 0 0 0 1000 593.75V406.25A31.25 31.25 0 0 0 968.75 375H406.25A31.25 31.25 0 0 0 375 406.25zM0 593.75A31.25 31.25 0 0 0 31.25 625H218.75A31.25 31.25 0 0 0 250 593.75V406.25A31.25 31.25 0 0 0 218.75 375H31.25A31.25 31.25 0 0 0 0 406.25zM0 218.75A31.25 31.25 0 0 0 31.25 250H968.75A31.25 31.25 0 0 0 1000 218.75V31.25A31.25 31.25 0 0 0 968.75 0H31.25A31.25 31.25 0 0 0 0 31.25z" />
    <glyph glyph-name="wc-analytics-3"
      unicode="&#xEA15;"
      horiz-adv-x="1000" d="M375 593.75A31.25 31.25 0 0 0 406.25 625H593.75A31.25 31.25 0 0 0 625 593.75V406.25A31.25 31.25 0 0 0 593.75 375H406.25A31.25 31.25 0 0 0 375 406.25zM375 968.75A31.25 31.25 0 0 0 406.25 1000H593.75A31.25 31.25 0 0 0 625 968.75V781.25A31.25 31.25 0 0 0 593.75 750H406.25A31.25 31.25 0 0 0 375 781.25zM0 218.75A31.25 31.25 0 0 0 31.25 250H218.75A31.25 31.25 0 0 0 250 218.75V31.25A31.25 31.25 0 0 0 218.75 0H31.25A31.25 31.25 0 0 0 0 31.25zM0 593.75A31.25 31.25 0 0 0 31.25 625H218.75A31.25 31.25 0 0 0 250 593.75V406.25A31.25 31.25 0 0 0 218.75 375H31.25A31.25 31.25 0 0 0 0 406.25zM0 968.75A31.25 31.25 0 0 0 31.25 1000H218.75A31.25 31.25 0 0 0 250 968.75V781.25A31.25 31.25 0 0 0 218.75 750H31.25A31.25 31.25 0 0 0 0 781.25zM750 593.75A31.25 31.25 0 0 0 781.25 625H968.75A31.25 31.25 0 0 0 1000 593.75V406.25A31.25 31.25 0 0 0 968.75 375H781.25A31.25 31.25 0 0 0 750 406.25zM750 968.75A31.25 31.25 0 0 0 781.25 1000H968.75A31.25 31.25 0 0 0 1000 968.75V781.25A31.25 31.25 0 0 0 968.75 750H781.25A31.25 31.25 0 0 0 750 781.25zM375 218.75A31.25 31.25 0 0 0 406.25 250H593.75A31.25 31.25 0 0 0 625 218.75V31.25A31.25 31.25 0 0 0 593.75 0H406.25A31.25 31.25 0 0 0 375 31.25zM750 218.75A31.25 31.25 0 0 0 781.25 250H968.75A31.25 31.25 0 0 0 1000 218.75V31.25A31.25 31.25 0 0 0 968.75 0H781.25A31.25 31.25 0 0 0 750 31.25z" />
    <glyph glyph-name="wc-analytics-3-1"
      unicode="&#x77;&#x63;&#x2D;&#x61;&#x6E;&#x61;&#x6C;&#x79;&#x74;&#x69;&#x63;&#x73;&#x2D;&#x33;"
      horiz-adv-x="1000" d="M375 593.75A31.25 31.25 0 0 0 406.25 625H593.75A31.25 31.25 0 0 0 625 593.75V406.25A31.25 31.25 0 0 0 593.75 375H406.25A31.25 31.25 0 0 0 375 406.25zM375 968.75A31.25 31.25 0 0 0 406.25 1000H593.75A31.25 31.25 0 0 0 625 968.75V781.25A31.25 31.25 0 0 0 593.75 750H406.25A31.25 31.25 0 0 0 375 781.25zM0 218.75A31.25 31.25 0 0 0 31.25 250H218.75A31.25 31.25 0 0 0 250 218.75V31.25A31.25 31.25 0 0 0 218.75 0H31.25A31.25 31.25 0 0 0 0 31.25zM0 593.75A31.25 31.25 0 0 0 31.25 625H218.75A31.25 31.25 0 0 0 250 593.75V406.25A31.25 31.25 0 0 0 218.75 375H31.25A31.25 31.25 0 0 0 0 406.25zM0 968.75A31.25 31.25 0 0 0 31.25 1000H218.75A31.25 31.25 0 0 0 250 968.75V781.25A31.25 31.25 0 0 0 218.75 750H31.25A31.25 31.25 0 0 0 0 781.25zM750 593.75A31.25 31.25 0 0 0 781.25 625H968.75A31.25 31.25 0 0 0 1000 593.75V406.25A31.25 31.25 0 0 0 968.75 375H781.25A31.25 31.25 0 0 0 750 406.25zM750 968.75A31.25 31.25 0 0 0 781.25 1000H968.75A31.25 31.25 0 0 0 1000 968.75V781.25A31.25 31.25 0 0 0 968.75 750H781.25A31.25 31.25 0 0 0 750 781.25zM375 218.75A31.25 31.25 0 0 0 406.25 250H593.75A31.25 31.25 0 0 0 625 218.75V31.25A31.25 31.25 0 0 0 593.75 0H406.25A31.25 31.25 0 0 0 375 31.25zM750 218.75A31.25 31.25 0 0 0 781.25 250H968.75A31.25 31.25 0 0 0 1000 218.75V31.25A31.25 31.25 0 0 0 968.75 0H781.25A31.25 31.25 0 0 0 750 31.25z" />
    <glyph glyph-name="wc-analytics-4"
      unicode="&#xEA16;"
      horiz-adv-x="1000" d="M375 970.2968757268778C375 986.7031257268778 389 999.9843757268778 406.25 999.9843757268778H968.75C986 999.9843757268778 1000 986.7031257268778 1000 970.2968757268778V792.1718757268778C1000 775.7656257268778 986 762.4843757268778 968.75 762.4843757268778H406.25C389 762.4843757268778 375 775.7656257268778 375 792.1718757268778zM237.5 881.2343757268778A118.75 118.75 0 1 0 0 881.2343757268778A118.75 118.75 0 0 0 237.5 881.2343757268778M375 589.0781257268778C375 605.4843757268778 389 618.7656257268778 406.25 618.7656257268778H968.75C986 618.7656257268778 1000 605.4843757268778 1000 589.0781257268778V410.9531257268779C1000 394.5468757268779 986 381.2656257268779 968.75 381.2656257268779H406.25C389 381.2656257268779 375 394.5468757268779 375 410.9531257268779zM237.5 500.0156257268778A118.75 118.75 0 1 0 0 500.0156257268778A118.75 118.75 0 0 0 237.5 500.0156257268778M375 207.8281257268778C375 224.2343757268778 389 237.5156257268779 406.25 237.5156257268779H968.75C986 237.5156257268779 1000 224.2343757268778 1000 207.8281257268778V29.7031257268778C1000 13.296875726878 986 0.0156257268778 968.75 0.0156257268778H406.25C389 0.0156257268778 375 13.296875726878 375 29.7031257268778zM237.5 118.7656257268779A118.75 118.75 0 1 0 0 118.7656257268779A118.75 118.75 0 0 0 237.5 118.7656257268779" />
    <glyph glyph-name="wc-analytics-4-1"
      unicode="&#x77;&#x63;&#x2D;&#x61;&#x6E;&#x61;&#x6C;&#x79;&#x74;&#x69;&#x63;&#x73;&#x2D;&#x34;"
      horiz-adv-x="1000" d="M375 970.2968757268778C375 986.7031257268778 389 999.9843757268778 406.25 999.9843757268778H968.75C986 999.9843757268778 1000 986.7031257268778 1000 970.2968757268778V792.1718757268778C1000 775.7656257268778 986 762.4843757268778 968.75 762.4843757268778H406.25C389 762.4843757268778 375 775.7656257268778 375 792.1718757268778zM237.5 881.2343757268778A118.75 118.75 0 1 0 0 881.2343757268778A118.75 118.75 0 0 0 237.5 881.2343757268778M375 589.0781257268778C375 605.4843757268778 389 618.7656257268778 406.25 618.7656257268778H968.75C986 618.7656257268778 1000 605.4843757268778 1000 589.0781257268778V410.9531257268779C1000 394.5468757268779 986 381.2656257268779 968.75 381.2656257268779H406.25C389 381.2656257268779 375 394.5468757268779 375 410.9531257268779zM237.5 500.0156257268778A118.75 118.75 0 1 0 0 500.0156257268778A118.75 118.75 0 0 0 237.5 500.0156257268778M375 207.8281257268778C375 224.2343757268778 389 237.5156257268779 406.25 237.5156257268779H968.75C986 237.5156257268779 1000 224.2343757268778 1000 207.8281257268778V29.7031257268778C1000 13.296875726878 986 0.0156257268778 968.75 0.0156257268778H406.25C389 0.0156257268778 375 13.296875726878 375 29.7031257268778zM237.5 118.7656257268779A118.75 118.75 0 1 0 0 118.7656257268779A118.75 118.75 0 0 0 237.5 118.7656257268779" />
    <glyph glyph-name="wc-analytics"
      unicode="&#xEA17;"
      horiz-adv-x="1000" d="M252 58.2525792641675H61.5A18.5625 18.5625 0 0 0 42.4999999999999 76.7525792641675V518.7525792641675C42.4999999999999 529.2525792641675 51 537.2525792641675 61.5 537.2525792641675H252C262.5 537.2525792641675 271 529.2525792641675 271 518.7525792641675V76.7525792641675A18.5625 18.5625 0 0 0 252 58.2525792641675M80.4999999999999 94.7525792641675H232.9999999999999V500.2525792641675H80.4999999999999zM595.5 58.2525792641675H404.5A18.5625 18.5625 0 0 0 385.5 76.7525792641675V923.7525792641674C385.5 934.2525792641674 394 942.2525792641674 404.5 942.2525792641674H595.5C606 942.2525792641674 614.5 934.2525792641674 614.5 923.7525792641674V76.2525792641675A18.5625 18.5625 0 0 0 595.5 57.7525792641675zM423.5 94.7525792641675H576.0000000000001V905.7525792641674H423.5000000000001V95.2525792641675zM938.5 58.2525792641675H747.5A18.5625 18.5625 0 0 0 728.5 76.7525792641675V739.7525792641675C728.5 750.2525792641675 737 758.2525792641675 747.5 758.2525792641675H938.5000000000002C949.0000000000002 758.2525792641675 957.5000000000002 750.2525792641675 957.5000000000002 739.7525792641675V76.7525792641675A18.5625 18.5625 0 0 0 938.5000000000002 58.2525792641675M767.0000000000001 94.7525792641675H919.5000000000002V721.2525792641675H767.0000000000001z" />
    <glyph glyph-name="wc-analytics-1"
      unicode="&#x77;&#x63;&#x2D;&#x61;&#x6E;&#x61;&#x6C;&#x79;&#x74;&#x69;&#x63;&#x73;"
      horiz-adv-x="1000" d="M252 58.2525792641675H61.5A18.5625 18.5625 0 0 0 42.4999999999999 76.7525792641675V518.7525792641675C42.4999999999999 529.2525792641675 51 537.2525792641675 61.5 537.2525792641675H252C262.5 537.2525792641675 271 529.2525792641675 271 518.7525792641675V76.7525792641675A18.5625 18.5625 0 0 0 252 58.2525792641675M80.4999999999999 94.7525792641675H232.9999999999999V500.2525792641675H80.4999999999999zM595.5 58.2525792641675H404.5A18.5625 18.5625 0 0 0 385.5 76.7525792641675V923.7525792641674C385.5 934.2525792641674 394 942.2525792641674 404.5 942.2525792641674H595.5C606 942.2525792641674 614.5 934.2525792641674 614.5 923.7525792641674V76.2525792641675A18.5625 18.5625 0 0 0 595.5 57.7525792641675zM423.5 94.7525792641675H576.0000000000001V905.7525792641674H423.5000000000001V95.2525792641675zM938.5 58.2525792641675H747.5A18.5625 18.5625 0 0 0 728.5 76.7525792641675V739.7525792641675C728.5 750.2525792641675 737 758.2525792641675 747.5 758.2525792641675H938.5000000000002C949.0000000000002 758.2525792641675 957.5000000000002 750.2525792641675 957.5000000000002 739.7525792641675V76.7525792641675A18.5625 18.5625 0 0 0 938.5000000000002 58.2525792641675M767.0000000000001 94.7525792641675H919.5000000000002V721.2525792641675H767.0000000000001z" />
    <glyph glyph-name="wc-anlytics-box"
      unicode="&#xEA18;"
      horiz-adv-x="1000" d="M218.75 875H781.25A93.75 93.75 0 0 0 875 781.25V218.75A93.75 93.75 0 0 0 781.25 125H218.75A93.75 93.75 0 0 0 125 218.75V781.25A93.75 93.75 0 0 0 218.75 875M359.375 593.75H265.625V265.625H359.375zM453.125 734.375V265.625H546.875V734.375zM734.375 453.125H640.625V265.625H734.375z" />
    <glyph glyph-name="wc-anlytics-box-1"
      unicode="&#x77;&#x63;&#x2D;&#x61;&#x6E;&#x6C;&#x79;&#x74;&#x69;&#x63;&#x73;&#x2D;&#x62;&#x6F;&#x78;"
      horiz-adv-x="1000" d="M218.75 875H781.25A93.75 93.75 0 0 0 875 781.25V218.75A93.75 93.75 0 0 0 781.25 125H218.75A93.75 93.75 0 0 0 125 218.75V781.25A93.75 93.75 0 0 0 218.75 875M359.375 593.75H265.625V265.625H359.375zM453.125 734.375V265.625H546.875V734.375zM734.375 453.125H640.625V265.625H734.375z" />
    <glyph glyph-name="wc-area-chart"
      unicode="&#xEA19;"
      horiz-adv-x="1000" d="M232.125 821.4375A53.5625 53.5625 0 0 1 125 821.4375V125H821.4375A53.5625 53.5625 0 1 1 821.4375 232.125H232.15625V821.40625zM555.4687499999999 660.71875L339.25 875V339.28125H874.9687499999999V553.5625L659.2499999999999 767.84375L555.4687499999999 660.6875z" />
    <glyph glyph-name="wc-area-chart-1"
      unicode="&#x77;&#x63;&#x2D;&#x61;&#x72;&#x65;&#x61;&#x2D;&#x63;&#x68;&#x61;&#x72;&#x74;"
      horiz-adv-x="1000" d="M232.125 821.4375A53.5625 53.5625 0 0 1 125 821.4375V125H821.4375A53.5625 53.5625 0 1 1 821.4375 232.125H232.15625V821.40625zM555.4687499999999 660.71875L339.25 875V339.28125H874.9687499999999V553.5625L659.2499999999999 767.84375L555.4687499999999 660.6875z" />
    <glyph glyph-name="wc-audience"
      unicode="&#xEA1A;"
      horiz-adv-x="1000" d="M125.25 550V620C148.75 625 167.25 635 180.25 651S199.75 687 199.75 710.5C199.75 737 193.25 757 179.75 771.5C166.25 785.5 146.25 797.5 119.75 806.5C104.75 811.5 93.25 816.5 85.25 820.5C77.25 825 71.75 830 68.75 834.5A37.5 37.5 0 0 0 64.25 853.5C64.25 865 68.25 874 75.75 880C83.75 886.5 93.75 889.5 106.25 889.5C117.75 889.5 128.25 887.5 137.75 883S156.75 872 165.75 863L192.25 896.5A112.5 112.5 0 0 1 161.75 920A112.5 112.5 0 0 1 125.75 932.5V1000H85.75V933C63.25 929.5 45.25 920.5 31.25 905.5C17.75 891 10.75 872.5 10.75 850S17.25 809 29.75 794.5S63.25 768 92.25 758.5C106.75 753.5 117.75 749 125.25 744.5S138.25 734.5 141.25 729C144.75 723 146.25 716 146.25 707C146.25 692.5 141.75 681.5 132.25 673.5Q118.75 661.5 96.25 661.5C70.25 661.5 47.25 672 27.75 692.5L0.25 658.5C22.75 633.5 51.25 620 85.75 617.5V550H125.75zM799.75 500H749.75A200.3125 200.3125 0 0 1 575.7500000000001 398.5A250 250 0 0 0 627.7500000000001 387.5A149.0625 149.0625 0 0 0 749.7500000000001 450H799.7500000000001C882.7500000000001 450 949.7500000000002 383 949.7500000000002 299.9999999999999H749.75C761.25 284.5 771.25 267.9999999999999 778.75 249.9999999999999H999.75V299.9999999999999C999.75 410.5 910.25 500 799.75 500M774.75 550C843.7500000000001 550 899.75 606 899.75 675S843.75 800 774.75 800S649.75 744 649.75 675S705.7500000000001 550 774.75 550M774.75 750C816.25 750 849.75 716.5 849.75 675S816.25 600 774.75 600S699.7500000000001 633.5 699.7500000000001 675S733.25 750 774.75 750M424.75 400C521.25 400 599.75 478.5 599.75 575S521.25 750 424.75 750S249.75 671.5 249.75 575S328.25 400 424.75 400M424.75 700C493.75 700 549.75 644 549.75 575S493.7500000000001 450 424.7500000000001 450S299.7500000000001 505.9999999999999 299.7500000000001 575S355.7500000000001 700 424.7500000000001 700M499.75 350H349.75C211.75 350 99.75 238 99.75 100V0H749.75V100C749.75 238 637.75 350 499.75 350M699.75 50H149.75V100.0000000000001C149.75 210.5000000000001 239.25 300 349.75 300H499.75C610.25 300 699.75 210.5 699.75 100.0000000000001z" />
    <glyph glyph-name="wc-audience-1"
      unicode="&#x77;&#x63;&#x2D;&#x61;&#x75;&#x64;&#x69;&#x65;&#x6E;&#x63;&#x65;"
      horiz-adv-x="1000" d="M125.25 550V620C148.75 625 167.25 635 180.25 651S199.75 687 199.75 710.5C199.75 737 193.25 757 179.75 771.5C166.25 785.5 146.25 797.5 119.75 806.5C104.75 811.5 93.25 816.5 85.25 820.5C77.25 825 71.75 830 68.75 834.5A37.5 37.5 0 0 0 64.25 853.5C64.25 865 68.25 874 75.75 880C83.75 886.5 93.75 889.5 106.25 889.5C117.75 889.5 128.25 887.5 137.75 883S156.75 872 165.75 863L192.25 896.5A112.5 112.5 0 0 1 161.75 920A112.5 112.5 0 0 1 125.75 932.5V1000H85.75V933C63.25 929.5 45.25 920.5 31.25 905.5C17.75 891 10.75 872.5 10.75 850S17.25 809 29.75 794.5S63.25 768 92.25 758.5C106.75 753.5 117.75 749 125.25 744.5S138.25 734.5 141.25 729C144.75 723 146.25 716 146.25 707C146.25 692.5 141.75 681.5 132.25 673.5Q118.75 661.5 96.25 661.5C70.25 661.5 47.25 672 27.75 692.5L0.25 658.5C22.75 633.5 51.25 620 85.75 617.5V550H125.75zM799.75 500H749.75A200.3125 200.3125 0 0 1 575.7500000000001 398.5A250 250 0 0 0 627.7500000000001 387.5A149.0625 149.0625 0 0 0 749.7500000000001 450H799.7500000000001C882.7500000000001 450 949.7500000000002 383 949.7500000000002 299.9999999999999H749.75C761.25 284.5 771.25 267.9999999999999 778.75 249.9999999999999H999.75V299.9999999999999C999.75 410.5 910.25 500 799.75 500M774.75 550C843.7500000000001 550 899.75 606 899.75 675S843.75 800 774.75 800S649.75 744 649.75 675S705.7500000000001 550 774.75 550M774.75 750C816.25 750 849.75 716.5 849.75 675S816.25 600 774.75 600S699.7500000000001 633.5 699.7500000000001 675S733.25 750 774.75 750M424.75 400C521.25 400 599.75 478.5 599.75 575S521.25 750 424.75 750S249.75 671.5 249.75 575S328.25 400 424.75 400M424.75 700C493.75 700 549.75 644 549.75 575S493.7500000000001 450 424.7500000000001 450S299.7500000000001 505.9999999999999 299.7500000000001 575S355.7500000000001 700 424.7500000000001 700M499.75 350H349.75C211.75 350 99.75 238 99.75 100V0H749.75V100C749.75 238 637.75 350 499.75 350M699.75 50H149.75V100.0000000000001C149.75 210.5000000000001 239.25 300 349.75 300H499.75C610.25 300 699.75 210.5 699.75 100.0000000000001z" />
    <glyph glyph-name="wc-badge-approved"
      unicode="&#xEA1B;"
      horiz-adv-x="1000" d="M687.5 166.65625L875 500L687.5 833.34375H312.5L125 500L312.5 166.65625zM619.78125 664.96875L699.40625 591.375L444.96875 301.3437499999999L285.71875 448.4999999999999L357.4062500000001 530.2187499999999L437.0312500000001 456.625z" />
    <glyph glyph-name="wc-badge-approved-1"
      unicode="&#x77;&#x63;&#x2D;&#x62;&#x61;&#x64;&#x67;&#x65;&#x2D;&#x61;&#x70;&#x70;&#x72;&#x6F;&#x76;&#x65;&#x64;"
      horiz-adv-x="1000" d="M687.5 166.65625L875 500L687.5 833.34375H312.5L125 500L312.5 166.65625zM619.78125 664.96875L699.40625 591.375L444.96875 301.3437499999999L285.71875 448.4999999999999L357.4062500000001 530.2187499999999L437.0312500000001 456.625z" />
    <glyph glyph-name="wc-badges"
      unicode="&#xEA1C;"
      horiz-adv-x="1000" d="M484.75 207.9992630746604H514.75V172.4992630746604H484.75zM424.75 207.9992630746604H454.7499999999999V172.4992630746604H424.75zM544.75 207.9992630746604H574.7500000000001V172.4992630746604H544.75zM563.25 633.4992630746603C569.25 628.4992630746603 578.25 628.4992630746603 584.75 632.9992630746603S593.75 645.9992630746603 591.2499999999999 653.4992630746603L565.2499999999999 729.9992630746603L630.2499999999999 781.4992630746603A17.8125 17.8125 0 0 1 619.2499999999998 813.4992630746603H542.25L516.25 889.9992630746603C513.75 897.4992630746603 506.75 901.9992630746603 499.2499999999999 901.9992630746603S484.7499999999999 896.9992630746603 482.2499999999999 889.9992630746603L456.2499999999999 813.4992630746603H379.2499999999999C371.7499999999999 813.4992630746603 364.7499999999999 808.4992630746603 362.2499999999999 801.4992630746603S362.2499999999999 786.4992630746603 368.2499999999999 781.4992630746603L433.2499999999999 729.9992630746603L407.2499999999999 653.4992630746603A18.25 18.25 0 0 1 424.2499999999999 629.4992630746603A17.5 17.5 0 0 1 435.2499999999999 633.4992630746603L499.2499999999999 683.9992630746603L562.75 633.4992630746603zM461.25 698.9992630746603L471.7500000000001 730.4992630746603C474.2500000000001 737.4992630746603 471.7500000000001 745.4992630746603 465.75 749.9992630746603L431.25 776.9992630746603H469.75C477.25 776.9992630746603 484.25 781.9992630746603 486.75 788.9992630746603L499.75 827.4992630746603L512.75 788.9992630746603C515.25 781.4992630746603 522.25 776.9992630746603 529.75 776.9992630746603H568.25L533.75 749.9992630746603C527.75 745.4992630746603 525.2500000000001 737.4992630746603 527.75 730.4992630746603L538.25 698.9992630746603L510.75 720.4992630746603A18 18 0 0 1 488.75 720.4992630746603L461.2499999999999 698.4992630746603zM772.25 60.4992630746604V101.4992630746604A17.9375 17.9375 0 0 1 754.25 119.4992630746604H712.25V278.4992630746605A17.9375 17.9375 0 0 1 694.25 296.4992630746605H671.75L617.25 350.4992630746605A17.5 17.5 0 0 1 604.7500000000001 355.4992630746605H547.75V472.9992630746605C584.25 488.4992630746604 618.75 519.9992630746603 647.2500000000001 560.4992630746605C674.75 577.9992630746605 847.2500000000001 696.9992630746605 847.2500000000001 897.9992630746605A17.9375 17.9375 0 0 1 829.2500000000001 915.9992630746603H754.2500000000002V880.4992630746605H810.7500000000001C804.2500000000002 773.4992630746605 742.7500000000001 692.4992630746605 692.2500000000001 643.4992630746606C714.2500000000001 695.4992630746606 727.2500000000001 753.4992630746606 727.2500000000001 809.9992630746606C727.2500000000001 854.9992630746606 712.7500000000002 955.9992630746606 712.2500000000001 959.9992630746606C710.7500000000002 968.4992630746606 703.2500000000001 975.4992630746606 694.7500000000002 975.4992630746606H305.25A17.375 17.375 0 0 1 287.75 959.9992630746606C287.25 955.9992630746606 272.75 854.9992630746606 272.75 809.9992630746606C272.75 753.4992630746606 286.25 695.4992630746606 307.75 643.4992630746606C257.25 692.4992630746606 195.25 773.4992630746606 189.25 880.4992630746606H245.75V915.9992630746603H170.75A17.9375 17.9375 0 0 1 152.75 897.9992630746603C152.75 696.4992630746603 325.2499999999999 577.4992630746603 352.75 559.9992630746603C381.75 519.4992630746603 415.75 487.9992630746603 452.25 472.4992630746602V354.9992630746604H395.25A19.6875 19.6875 0 0 1 382.75 349.9992630746604L328.25 295.9992630746603H305.75A17.9375 17.9375 0 0 1 287.75 277.9992630746603V118.9992630746602H245.75A17.9375 17.9375 0 0 1 227.75 100.9992630746602V59.9992630746602H20.75V24.4992630746602H979.25V59.9992630746604H772.25zM475.25 501.9992630746603C396.25 527.9992630746603 307.75 664.9992630746603 307.75 809.4992630746603C307.75 841.9992630746603 316.25 908.9992630746603 320.25 938.9992630746603H678.7499999999999C682.7499999999999 908.9992630746603 691.2499999999999 841.4992630746603 691.2499999999999 809.4992630746603C691.2499999999999 664.9992630746603 602.7499999999999 527.9992630746603 523.7499999999999 501.9992630746603C516.25 499.4992630746604 511.2499999999999 492.9992630746603 511.2499999999999 484.9992630746603V355.4992630746603H487.25V484.9992630746603C487.25 492.4992630746603 482.25 499.4992630746603 474.75 501.9992630746603zM402.25 319.9992630746604H597.25L620.75 296.4992630746604H378.25L401.75 319.9992630746604zM322.75 260.9992630746603H676.25V119.4992630746602H322.75zM263.25 60.4992630746602V83.9992630746602H736.75V60.4992630746602z" />
    <glyph glyph-name="wc-badges-1"
      unicode="&#x77;&#x63;&#x2D;&#x62;&#x61;&#x64;&#x67;&#x65;&#x73;"
      horiz-adv-x="1000" d="M484.75 207.9992630746604H514.75V172.4992630746604H484.75zM424.75 207.9992630746604H454.7499999999999V172.4992630746604H424.75zM544.75 207.9992630746604H574.7500000000001V172.4992630746604H544.75zM563.25 633.4992630746603C569.25 628.4992630746603 578.25 628.4992630746603 584.75 632.9992630746603S593.75 645.9992630746603 591.2499999999999 653.4992630746603L565.2499999999999 729.9992630746603L630.2499999999999 781.4992630746603A17.8125 17.8125 0 0 1 619.2499999999998 813.4992630746603H542.25L516.25 889.9992630746603C513.75 897.4992630746603 506.75 901.9992630746603 499.2499999999999 901.9992630746603S484.7499999999999 896.9992630746603 482.2499999999999 889.9992630746603L456.2499999999999 813.4992630746603H379.2499999999999C371.7499999999999 813.4992630746603 364.7499999999999 808.4992630746603 362.2499999999999 801.4992630746603S362.2499999999999 786.4992630746603 368.2499999999999 781.4992630746603L433.2499999999999 729.9992630746603L407.2499999999999 653.4992630746603A18.25 18.25 0 0 1 424.2499999999999 629.4992630746603A17.5 17.5 0 0 1 435.2499999999999 633.4992630746603L499.2499999999999 683.9992630746603L562.75 633.4992630746603zM461.25 698.9992630746603L471.7500000000001 730.4992630746603C474.2500000000001 737.4992630746603 471.7500000000001 745.4992630746603 465.75 749.9992630746603L431.25 776.9992630746603H469.75C477.25 776.9992630746603 484.25 781.9992630746603 486.75 788.9992630746603L499.75 827.4992630746603L512.75 788.9992630746603C515.25 781.4992630746603 522.25 776.9992630746603 529.75 776.9992630746603H568.25L533.75 749.9992630746603C527.75 745.4992630746603 525.2500000000001 737.4992630746603 527.75 730.4992630746603L538.25 698.9992630746603L510.75 720.4992630746603A18 18 0 0 1 488.75 720.4992630746603L461.2499999999999 698.4992630746603zM772.25 60.4992630746604V101.4992630746604A17.9375 17.9375 0 0 1 754.25 119.4992630746604H712.25V278.4992630746605A17.9375 17.9375 0 0 1 694.25 296.4992630746605H671.75L617.25 350.4992630746605A17.5 17.5 0 0 1 604.7500000000001 355.4992630746605H547.75V472.9992630746605C584.25 488.4992630746604 618.75 519.9992630746603 647.2500000000001 560.4992630746605C674.75 577.9992630746605 847.2500000000001 696.9992630746605 847.2500000000001 897.9992630746605A17.9375 17.9375 0 0 1 829.2500000000001 915.9992630746603H754.2500000000002V880.4992630746605H810.7500000000001C804.2500000000002 773.4992630746605 742.7500000000001 692.4992630746605 692.2500000000001 643.4992630746606C714.2500000000001 695.4992630746606 727.2500000000001 753.4992630746606 727.2500000000001 809.9992630746606C727.2500000000001 854.9992630746606 712.7500000000002 955.9992630746606 712.2500000000001 959.9992630746606C710.7500000000002 968.4992630746606 703.2500000000001 975.4992630746606 694.7500000000002 975.4992630746606H305.25A17.375 17.375 0 0 1 287.75 959.9992630746606C287.25 955.9992630746606 272.75 854.9992630746606 272.75 809.9992630746606C272.75 753.4992630746606 286.25 695.4992630746606 307.75 643.4992630746606C257.25 692.4992630746606 195.25 773.4992630746606 189.25 880.4992630746606H245.75V915.9992630746603H170.75A17.9375 17.9375 0 0 1 152.75 897.9992630746603C152.75 696.4992630746603 325.2499999999999 577.4992630746603 352.75 559.9992630746603C381.75 519.4992630746603 415.75 487.9992630746603 452.25 472.4992630746602V354.9992630746604H395.25A19.6875 19.6875 0 0 1 382.75 349.9992630746604L328.25 295.9992630746603H305.75A17.9375 17.9375 0 0 1 287.75 277.9992630746603V118.9992630746602H245.75A17.9375 17.9375 0 0 1 227.75 100.9992630746602V59.9992630746602H20.75V24.4992630746602H979.25V59.9992630746604H772.25zM475.25 501.9992630746603C396.25 527.9992630746603 307.75 664.9992630746603 307.75 809.4992630746603C307.75 841.9992630746603 316.25 908.9992630746603 320.25 938.9992630746603H678.7499999999999C682.7499999999999 908.9992630746603 691.2499999999999 841.4992630746603 691.2499999999999 809.4992630746603C691.2499999999999 664.9992630746603 602.7499999999999 527.9992630746603 523.7499999999999 501.9992630746603C516.25 499.4992630746604 511.2499999999999 492.9992630746603 511.2499999999999 484.9992630746603V355.4992630746603H487.25V484.9992630746603C487.25 492.4992630746603 482.25 499.4992630746603 474.75 501.9992630746603zM402.25 319.9992630746604H597.25L620.75 296.4992630746604H378.25L401.75 319.9992630746604zM322.75 260.9992630746603H676.25V119.4992630746602H322.75zM263.25 60.4992630746602V83.9992630746602H736.75V60.4992630746602z" />
    <glyph glyph-name="wc-balancing"
      unicode="&#xEA1D;"
      horiz-adv-x="1000" d="M836.7499999999998 135H607.2499999999998V98.4999999999999H836.7499999999998C871.2499999999998 98.4999999999999 899.7499999999998 75.0000000000001 908.2499999999998 42.9999999999999H91.2499999999997A73.4375 73.4375 0 0 0 162.7499999999997 98.4999999999999H392.7499999999997V135H162.7499999999997A110.3125 110.3125 0 0 1 52.7499999999997 24.9999999999999V6.5000000000001H947.2499999999998V24.9999999999999A110 110 0 0 1 837.2499999999998 135zM481.2499999999997 929H517.7499999999998V898.5H481.2499999999998zM55.2499999999997 711.5H116.7499999999997V748H55.2499999999997C48.2499999999997 748 42.7499999999997 753.5 42.7499999999997 760.5S48.2499999999997 773 55.2499999999997 773H390.7499999999997C390.7499999999997 769 389.2499999999997 765 389.2499999999997 760.5S390.2499999999997 752 390.7499999999997 748H208.7499999999997V711.5H401.7499999999997C406.7499999999997 701.5 412.7499999999998 692.5 420.2499999999998 684.5V98.4999999999999H579.2499999999998V684.5C586.7499999999998 692.5 593.2499999999998 701.5 597.7499999999998 711.5H790.7499999999995V748H608.2499999999995C608.2499999999995 752 609.7499999999995 756 609.7499999999995 760.5S608.7499999999995 769 608.2499999999995 773H943.7499999999998C950.7499999999998 773 956.2499999999995 767.5 956.2499999999995 760.5S950.7499999999998 748 943.7499999999998 748H882.2499999999998V711.5H943.7499999999998C970.7499999999998 711.5 992.7499999999998 733.5 992.7499999999998 760.5S970.7499999999998 809.5 943.7499999999998 809.5H597.7499999999998A103.125 103.125 0 0 1 578.7499999999998 836.5V914C578.7499999999998 958 543.2499999999998 993.5 499.2499999999997 993.5S419.7499999999997 958 419.7499999999997 914V836.5C412.2499999999997 828.5 406.2499999999997 819.5 401.2499999999997 809.5H55.2499999999997C28.2499999999997 809.5 6.2499999999997 787.5 6.2499999999997 760.5S28.2499999999997 711.5 55.2499999999997 711.5M499.7499999999997 834C540.2499999999998 834 573.2499999999998 801 573.2499999999998 760.5S540.2499999999998 687 499.7499999999997 687S426.2499999999997 720 426.2499999999997 760.5S459.2499999999997 834 499.7499999999997 834M456.7499999999997 135V659C469.7499999999998 653.5 484.7499999999998 650 499.7499999999997 650S529.7499999999998 653 542.7499999999998 658.5V134.5H456.7499999999998zM499.7499999999997 956.5C523.2499999999998 956.5 542.7499999999998 937 542.7499999999998 913.5V862C529.7499999999998 867.5 515.2499999999998 870.5 499.7499999999997 870.5S469.7499999999997 867.5 456.7499999999997 861.5V913.5C456.7499999999997 937 476.2499999999998 956.5 499.7499999999997 956.5M318.7499999999997 453.9999999999999V472.4999999999998H297.2499999999997L179.2499999999997 737.5S178.2499999999997 739 177.7499999999997 739.5C177.2499999999997 740.5 176.2499999999997 742 175.2499999999997 743S173.2499999999997 744.5 172.2499999999997 745S170.7499999999997 746.5 169.7499999999997 747H169.2499999999997A9.375 9.375 0 0 0 165.7499999999997 748C164.7499999999997 748 163.7499999999997 748.5 162.2499999999997 748.5C161.2499999999997 748.5 160.2499999999997 748.5 158.7499999999997 748C157.7499999999997 748 156.2499999999997 748 155.2499999999997 747H154.7499999999997C153.7499999999997 747 153.2499999999997 746 152.2499999999997 745.5S150.2499999999997 744 149.2499999999997 743.5C148.2499999999997 742.5 147.7499999999997 741.5 146.7499999999997 740C146.7499999999997 739.5 145.7499999999997 738.5 145.2499999999997 738L28.2499999999997 471.9999999999999H6.2499999999997V453.4999999999999C6.2499999999997 367.5 76.2499999999997 297.5 162.2499999999997 297.5S318.2499999999997 367.4999999999999 318.2499999999997 453.4999999999999zM162.7499999999997 685L257.2499999999997 472.4999999999999H68.2499999999997zM44.2499999999997 435.5H280.7499999999997C271.7499999999997 378.5 222.2499999999998 334.5 162.2499999999998 334.5S52.7499999999998 378.5000000000001 44.2499999999998 435.5M853.7499999999998 736S853.2499999999998 737.5 852.7499999999998 738C851.7499999999998 739.5 851.2499999999998 741 849.7499999999998 742C849.2499999999998 742.5 848.2499999999998 743 847.2499999999998 743.5S845.2499999999998 745 844.2499999999998 745.5H843.7499999999998C842.7499999999998 745.5 841.7499999999998 745.5 840.7499999999998 746C839.7499999999998 746 838.2499999999998 746.5 837.2499999999998 746.5S834.75 746.5 833.75 746C832.75 746 831.25 746 830.25 745H829.75C828.75 745 827.75 743.5 827.25 743C826.25 742.5 825.25 742 824.7500000000002 741C823.7500000000002 740 822.7500000000002 738.5 821.75 737C821.75 736.5 820.75 736 820.75 735.5V734.5L703.2500000000002 470.4999999999998H681.7500000000002V451.9999999999999C681.7500000000002 366 751.7500000000002 295.9999999999999 837.7500000000002 295.9999999999999S993.7500000000002 365.9999999999999 993.7500000000002 451.9999999999999V470.4999999999998H971.7500000000002L854.2500000000002 734.5zM836.7499999999998 684.5L931.2499999999998 471.9999999999999H742.2499999999998zM836.7499999999998 334.5C777.2499999999998 334.5 727.2499999999995 378.5000000000001 718.7499999999998 435.5H955.2499999999998A120 120 0 0 0 836.7499999999998 334.5M484.2499999999997 196.5H514.7499999999998V160H484.2499999999998zM484.2499999999997 258H514.7499999999998V221.5H484.2499999999998zM484.2499999999997 319H514.7499999999998V282.5H484.2499999999998z" />
    <glyph glyph-name="wc-balancing-1"
      unicode="&#x77;&#x63;&#x2D;&#x62;&#x61;&#x6C;&#x61;&#x6E;&#x63;&#x69;&#x6E;&#x67;"
      horiz-adv-x="1000" d="M836.7499999999998 135H607.2499999999998V98.4999999999999H836.7499999999998C871.2499999999998 98.4999999999999 899.7499999999998 75.0000000000001 908.2499999999998 42.9999999999999H91.2499999999997A73.4375 73.4375 0 0 0 162.7499999999997 98.4999999999999H392.7499999999997V135H162.7499999999997A110.3125 110.3125 0 0 1 52.7499999999997 24.9999999999999V6.5000000000001H947.2499999999998V24.9999999999999A110 110 0 0 1 837.2499999999998 135zM481.2499999999997 929H517.7499999999998V898.5H481.2499999999998zM55.2499999999997 711.5H116.7499999999997V748H55.2499999999997C48.2499999999997 748 42.7499999999997 753.5 42.7499999999997 760.5S48.2499999999997 773 55.2499999999997 773H390.7499999999997C390.7499999999997 769 389.2499999999997 765 389.2499999999997 760.5S390.2499999999997 752 390.7499999999997 748H208.7499999999997V711.5H401.7499999999997C406.7499999999997 701.5 412.7499999999998 692.5 420.2499999999998 684.5V98.4999999999999H579.2499999999998V684.5C586.7499999999998 692.5 593.2499999999998 701.5 597.7499999999998 711.5H790.7499999999995V748H608.2499999999995C608.2499999999995 752 609.7499999999995 756 609.7499999999995 760.5S608.7499999999995 769 608.2499999999995 773H943.7499999999998C950.7499999999998 773 956.2499999999995 767.5 956.2499999999995 760.5S950.7499999999998 748 943.7499999999998 748H882.2499999999998V711.5H943.7499999999998C970.7499999999998 711.5 992.7499999999998 733.5 992.7499999999998 760.5S970.7499999999998 809.5 943.7499999999998 809.5H597.7499999999998A103.125 103.125 0 0 1 578.7499999999998 836.5V914C578.7499999999998 958 543.2499999999998 993.5 499.2499999999997 993.5S419.7499999999997 958 419.7499999999997 914V836.5C412.2499999999997 828.5 406.2499999999997 819.5 401.2499999999997 809.5H55.2499999999997C28.2499999999997 809.5 6.2499999999997 787.5 6.2499999999997 760.5S28.2499999999997 711.5 55.2499999999997 711.5M499.7499999999997 834C540.2499999999998 834 573.2499999999998 801 573.2499999999998 760.5S540.2499999999998 687 499.7499999999997 687S426.2499999999997 720 426.2499999999997 760.5S459.2499999999997 834 499.7499999999997 834M456.7499999999997 135V659C469.7499999999998 653.5 484.7499999999998 650 499.7499999999997 650S529.7499999999998 653 542.7499999999998 658.5V134.5H456.7499999999998zM499.7499999999997 956.5C523.2499999999998 956.5 542.7499999999998 937 542.7499999999998 913.5V862C529.7499999999998 867.5 515.2499999999998 870.5 499.7499999999997 870.5S469.7499999999997 867.5 456.7499999999997 861.5V913.5C456.7499999999997 937 476.2499999999998 956.5 499.7499999999997 956.5M318.7499999999997 453.9999999999999V472.4999999999998H297.2499999999997L179.2499999999997 737.5S178.2499999999997 739 177.7499999999997 739.5C177.2499999999997 740.5 176.2499999999997 742 175.2499999999997 743S173.2499999999997 744.5 172.2499999999997 745S170.7499999999997 746.5 169.7499999999997 747H169.2499999999997A9.375 9.375 0 0 0 165.7499999999997 748C164.7499999999997 748 163.7499999999997 748.5 162.2499999999997 748.5C161.2499999999997 748.5 160.2499999999997 748.5 158.7499999999997 748C157.7499999999997 748 156.2499999999997 748 155.2499999999997 747H154.7499999999997C153.7499999999997 747 153.2499999999997 746 152.2499999999997 745.5S150.2499999999997 744 149.2499999999997 743.5C148.2499999999997 742.5 147.7499999999997 741.5 146.7499999999997 740C146.7499999999997 739.5 145.7499999999997 738.5 145.2499999999997 738L28.2499999999997 471.9999999999999H6.2499999999997V453.4999999999999C6.2499999999997 367.5 76.2499999999997 297.5 162.2499999999997 297.5S318.2499999999997 367.4999999999999 318.2499999999997 453.4999999999999zM162.7499999999997 685L257.2499999999997 472.4999999999999H68.2499999999997zM44.2499999999997 435.5H280.7499999999997C271.7499999999997 378.5 222.2499999999998 334.5 162.2499999999998 334.5S52.7499999999998 378.5000000000001 44.2499999999998 435.5M853.7499999999998 736S853.2499999999998 737.5 852.7499999999998 738C851.7499999999998 739.5 851.2499999999998 741 849.7499999999998 742C849.2499999999998 742.5 848.2499999999998 743 847.2499999999998 743.5S845.2499999999998 745 844.2499999999998 745.5H843.7499999999998C842.7499999999998 745.5 841.7499999999998 745.5 840.7499999999998 746C839.7499999999998 746 838.2499999999998 746.5 837.2499999999998 746.5S834.75 746.5 833.75 746C832.75 746 831.25 746 830.25 745H829.75C828.75 745 827.75 743.5 827.25 743C826.25 742.5 825.25 742 824.7500000000002 741C823.7500000000002 740 822.7500000000002 738.5 821.75 737C821.75 736.5 820.75 736 820.75 735.5V734.5L703.2500000000002 470.4999999999998H681.7500000000002V451.9999999999999C681.7500000000002 366 751.7500000000002 295.9999999999999 837.7500000000002 295.9999999999999S993.7500000000002 365.9999999999999 993.7500000000002 451.9999999999999V470.4999999999998H971.7500000000002L854.2500000000002 734.5zM836.7499999999998 684.5L931.2499999999998 471.9999999999999H742.2499999999998zM836.7499999999998 334.5C777.2499999999998 334.5 727.2499999999995 378.5000000000001 718.7499999999998 435.5H955.2499999999998A120 120 0 0 0 836.7499999999998 334.5M484.2499999999997 196.5H514.7499999999998V160H484.2499999999998zM484.2499999999997 258H514.7499999999998V221.5H484.2499999999998zM484.2499999999997 319H514.7499999999998V282.5H484.2499999999998z" />
    <glyph glyph-name="wc-bar-graph"
      unicode="&#xEA1E;"
      horiz-adv-x="1000" d="M166.6875 874.96875C189.6875 874.96875 208.34375 856.3125 208.34375 833.3125V208.3125H833.34375A41.65625 41.65625 0 0 0 833.34375 125H125V833.34375C125 856.34375 143.65625 875 166.65625 875zM613.125 833.3125V619.03125H291.6875V833.3125zM827.40625 511.875V297.59375H291.6875V511.875z" />
    <glyph glyph-name="wc-bar-graph-1"
      unicode="&#x77;&#x63;&#x2D;&#x62;&#x61;&#x72;&#x2D;&#x67;&#x72;&#x61;&#x70;&#x68;"
      horiz-adv-x="1000" d="M166.6875 874.96875C189.6875 874.96875 208.34375 856.3125 208.34375 833.3125V208.3125H833.34375A41.65625 41.65625 0 0 0 833.34375 125H125V833.34375C125 856.34375 143.65625 875 166.65625 875zM613.125 833.3125V619.03125H291.6875V833.3125zM827.40625 511.875V297.59375H291.6875V511.875z" />
    <glyph glyph-name="wc-basic-matrix-1"
      unicode="&#xEA1F;"
      horiz-adv-x="1000" d="M83.34375 875.984375C83.34375 887.484375 92.65625 896.828125 104.1875 896.828125H141.875C153.375 896.828125 162.71875 887.515625 162.71875 875.984375V124.0156250000001A20.84375 20.84375 0 0 0 141.875 103.1718749999999H104.1875A20.84375 20.84375 0 0 0 83.34375 124.0156250000001zM519.84375 621.015625C519.84375 598.015625 501.1875 579.359375 478.1875000000001 579.359375H283.75A41.65625 41.65625 0 0 0 242.09375 621.015625V815.453125C242.09375 838.453125 260.75 857.109375 283.75 857.109375H478.1875C501.1875 857.109375 519.8437499999999 838.453125 519.8437499999999 815.453125zM638.875 621.015625C638.875 598.015625 657.53125 579.359375 680.5312499999999 579.359375H874.96875C897.96875 579.359375 916.6249999999998 598.015625 916.6249999999998 621.015625V815.453125C916.6249999999998 838.453125 897.9687499999999 857.109375 874.96875 857.109375H680.5312499999999C657.5312499999999 857.109375 638.875 838.453125 638.875 815.453125zM698.40625 797.609375H857.125V638.890625H698.40625zM680.5625 142.8281250000001A41.65625 41.65625 0 0 0 638.90625 184.484375V378.9218750000001C638.90625 401.9218750000001 657.5625 420.578125 680.5625 420.578125H875C898 420.578125 916.65625 401.921875 916.65625 378.9218750000001V184.484375C916.65625 161.484375 897.9999999999999 142.8281250000001 875 142.8281250000001zM857.15625 361.1093750000001H698.4375V202.3906250000001H857.1562500000001zM242.0625 184.5156250000001C242.0625 161.5156250000001 260.71875 142.8593750000001 283.71875 142.8593750000001H478.1562500000001C501.1562500000001 142.8593750000001 519.8125 161.5156250000002 519.8125 184.5156250000001V378.9531250000001C519.8125 401.9531250000001 501.1562499999999 420.6093750000001 478.15625 420.6093750000001H283.71875C260.71875 420.6093750000001 242.0625 401.953125 242.0625 378.9531250000001zM301.59375 361.1093750000001H460.3125V202.3906250000001H301.59375z" />
    <glyph glyph-name="wc-basic-matrix-1-1"
      unicode="&#x77;&#x63;&#x2D;&#x62;&#x61;&#x73;&#x69;&#x63;&#x2D;&#x6D;&#x61;&#x74;&#x72;&#x69;&#x78;&#x2D;&#x31;"
      horiz-adv-x="1000" d="M83.34375 875.984375C83.34375 887.484375 92.65625 896.828125 104.1875 896.828125H141.875C153.375 896.828125 162.71875 887.515625 162.71875 875.984375V124.0156250000001A20.84375 20.84375 0 0 0 141.875 103.1718749999999H104.1875A20.84375 20.84375 0 0 0 83.34375 124.0156250000001zM519.84375 621.015625C519.84375 598.015625 501.1875 579.359375 478.1875000000001 579.359375H283.75A41.65625 41.65625 0 0 0 242.09375 621.015625V815.453125C242.09375 838.453125 260.75 857.109375 283.75 857.109375H478.1875C501.1875 857.109375 519.8437499999999 838.453125 519.8437499999999 815.453125zM638.875 621.015625C638.875 598.015625 657.53125 579.359375 680.5312499999999 579.359375H874.96875C897.96875 579.359375 916.6249999999998 598.015625 916.6249999999998 621.015625V815.453125C916.6249999999998 838.453125 897.9687499999999 857.109375 874.96875 857.109375H680.5312499999999C657.5312499999999 857.109375 638.875 838.453125 638.875 815.453125zM698.40625 797.609375H857.125V638.890625H698.40625zM680.5625 142.8281250000001A41.65625 41.65625 0 0 0 638.90625 184.484375V378.9218750000001C638.90625 401.9218750000001 657.5625 420.578125 680.5625 420.578125H875C898 420.578125 916.65625 401.921875 916.65625 378.9218750000001V184.484375C916.65625 161.484375 897.9999999999999 142.8281250000001 875 142.8281250000001zM857.15625 361.1093750000001H698.4375V202.3906250000001H857.1562500000001zM242.0625 184.5156250000001C242.0625 161.5156250000001 260.71875 142.8593750000001 283.71875 142.8593750000001H478.1562500000001C501.1562500000001 142.8593750000001 519.8125 161.5156250000002 519.8125 184.5156250000001V378.9531250000001C519.8125 401.9531250000001 501.1562499999999 420.6093750000001 478.15625 420.6093750000001H283.71875C260.71875 420.6093750000001 242.0625 401.953125 242.0625 378.9531250000001zM301.59375 361.1093750000001H460.3125V202.3906250000001H301.59375z" />
    <glyph glyph-name="wc-basic-matrix-2"
      unicode="&#xEA20;"
      horiz-adv-x="1000" d="M875 83.34375H125A41.65625 41.65625 0 0 0 83.34375 125V875C83.34375 898 102 916.65625 125 916.65625H875C898 916.65625 916.65625 898 916.65625 875V125C916.65625 102 897.9999999999999 83.34375 875 83.34375M541.65625 166.6562500000001H833.3124999999999V333.3125000000001H541.65625zM541.65625 416.6562500000001H833.3124999999999V583.3125H541.65625zM458.3437499999999 583.34375H166.6875V416.6875000000001H458.34375zM833.3437499999999 666.65625V833.3125H166.6875V666.65625zM458.3437499999999 333.34375H166.6875V166.6875000000001H458.34375z" />
    <glyph glyph-name="wc-basic-matrix-2-1"
      unicode="&#x77;&#x63;&#x2D;&#x62;&#x61;&#x73;&#x69;&#x63;&#x2D;&#x6D;&#x61;&#x74;&#x72;&#x69;&#x78;&#x2D;&#x32;"
      horiz-adv-x="1000" d="M875 83.34375H125A41.65625 41.65625 0 0 0 83.34375 125V875C83.34375 898 102 916.65625 125 916.65625H875C898 916.65625 916.65625 898 916.65625 875V125C916.65625 102 897.9999999999999 83.34375 875 83.34375M541.65625 166.6562500000001H833.3124999999999V333.3125000000001H541.65625zM541.65625 416.6562500000001H833.3124999999999V583.3125H541.65625zM458.3437499999999 583.34375H166.6875V416.6875000000001H458.34375zM833.3437499999999 666.65625V833.3125H166.6875V666.65625zM458.3437499999999 333.34375H166.6875V166.6875000000001H458.34375z" />
    <glyph glyph-name="wc-basic-matrix"
      unicode="&#xEA21;"
      horiz-adv-x="1000" d="M83.328125 857.953125C83.328125 869.453125 92.640625 878.796875 104.171875 878.796875H138.265625C149.765625 878.796875 159.109375 869.484375 159.109375 857.953125V142.0468750000001A20.84375 20.84375 0 0 0 138.265625 121.203125H104.171875A20.84375 20.84375 0 0 0 83.328125 142.0468750000001zM537.859375 272.7343750000001A151.5 151.5 0 1 0 234.859375 272.7343750000001A151.5 151.5 0 0 0 537.859375 272.7343750000001M386.359375 196.9843750000002A75.75 75.75 0 1 1 386.359375 348.4531250000002A75.75 75.75 0 0 1 386.359375 196.9843750000002M386.359375 575.765625A151.5 151.5 0 1 1 386.359375 878.765625A151.5 151.5 0 0 1 386.359375 575.765625M916.640625 727.296875A151.5 151.5 0 1 0 613.640625 727.296875A151.5 151.5 0 0 0 916.640625 727.296875M765.140625 651.515625A75.75 75.75 0 1 1 765.140625 802.984375A75.75 75.75 0 0 1 765.140625 651.515625M765.140625 121.2343750000001A151.53125 151.53125 0 1 1 765.140625 424.2968750000001A151.53125 151.53125 0 0 1 765.140625 121.2343750000001M840.890625 272.734375A75.75 75.75 0 1 0 689.4218749999999 272.734375A75.75 75.75 0 0 0 840.890625 272.734375" />
    <glyph glyph-name="wc-basic-matrix-1"
      unicode="&#x77;&#x63;&#x2D;&#x62;&#x61;&#x73;&#x69;&#x63;&#x2D;&#x6D;&#x61;&#x74;&#x72;&#x69;&#x78;"
      horiz-adv-x="1000" d="M83.328125 857.953125C83.328125 869.453125 92.640625 878.796875 104.171875 878.796875H138.265625C149.765625 878.796875 159.109375 869.484375 159.109375 857.953125V142.0468750000001A20.84375 20.84375 0 0 0 138.265625 121.203125H104.171875A20.84375 20.84375 0 0 0 83.328125 142.0468750000001zM537.859375 272.7343750000001A151.5 151.5 0 1 0 234.859375 272.7343750000001A151.5 151.5 0 0 0 537.859375 272.7343750000001M386.359375 196.9843750000002A75.75 75.75 0 1 1 386.359375 348.4531250000002A75.75 75.75 0 0 1 386.359375 196.9843750000002M386.359375 575.765625A151.5 151.5 0 1 1 386.359375 878.765625A151.5 151.5 0 0 1 386.359375 575.765625M916.640625 727.296875A151.5 151.5 0 1 0 613.640625 727.296875A151.5 151.5 0 0 0 916.640625 727.296875M765.140625 651.515625A75.75 75.75 0 1 1 765.140625 802.984375A75.75 75.75 0 0 1 765.140625 651.515625M765.140625 121.2343750000001A151.53125 151.53125 0 1 1 765.140625 424.2968750000001A151.53125 151.53125 0 0 1 765.140625 121.2343750000001M840.890625 272.734375A75.75 75.75 0 1 0 689.4218749999999 272.734375A75.75 75.75 0 0 0 840.890625 272.734375" />
    <glyph glyph-name="wc-bi-variable"
      unicode="&#xEA22;"
      horiz-adv-x="1000" d="" />
    <glyph glyph-name="wc-bi-variable-1"
      unicode="&#x77;&#x63;&#x2D;&#x62;&#x69;&#x2D;&#x76;&#x61;&#x72;&#x69;&#x61;&#x62;&#x6C;&#x65;"
      horiz-adv-x="1000" d="" />
    <glyph glyph-name="wc-bulk-edit"
      unicode="&#xEA23;"
      horiz-adv-x="1000" d="M719.2055227864901 878.4242727864901L720.2055227864901 879.4242727864901C778.8305227864901 938.04927278649 839.6117727864901 919.23677278649 879.4242727864901 879.4242727864901S938.04927278649 778.8305227864901 879.4242727864901 720.2055227864901L878.4242727864901 719.2055227864901zM760.3930227864901 601.1742727864901V265.61177278649C760.3930227864901 251.23677278649 748.7367727864898 239.58052278649 734.3617727864901 239.58052278649H604.1430227864901V109.36177278649C604.1430227864901 94.98677278649 592.4867727864898 83.33052278649 578.1117727864901 83.33052278649H109.36177278649A26.03125 26.03125 0 0 0 83.33052278649 109.36177278649V630.2055227864901C83.33052278649 644.5805227864901 94.98677278649 656.2367727864901 109.36177278649 656.2367727864901H239.58052278649V786.4555227864901Q239.58052278649 789.8617727864901 240.39302278649 792.9555227864901A26.03125 26.03125 0 0 0 265.61177278649 825.4867727864901L666.1430227864901 825.3305227864901L825.3617727864901 666.1117727864901L760.4242727864901 601.1742727864901zM187.48677278649 187.48677278649L240.54927278649 399.76802278649L444.92427278649 604.1430227864901H135.39302278649V135.39302278649H552.0492727864901V392.8305227864899L399.76802278649 240.5492727864899zM604.1430227864901 444.92427278649V291.64302278649H708.2992727864898V549.0805227864901zM614.2055227864898 773.4242727864901H291.64302278649V656.2367727864901H497.0180227864901z" />
    <glyph glyph-name="wc-bulk-edit-1"
      unicode="&#x77;&#x63;&#x2D;&#x62;&#x75;&#x6C;&#x6B;&#x2D;&#x65;&#x64;&#x69;&#x74;"
      horiz-adv-x="1000" d="M719.2055227864901 878.4242727864901L720.2055227864901 879.4242727864901C778.8305227864901 938.04927278649 839.6117727864901 919.23677278649 879.4242727864901 879.4242727864901S938.04927278649 778.8305227864901 879.4242727864901 720.2055227864901L878.4242727864901 719.2055227864901zM760.3930227864901 601.1742727864901V265.61177278649C760.3930227864901 251.23677278649 748.7367727864898 239.58052278649 734.3617727864901 239.58052278649H604.1430227864901V109.36177278649C604.1430227864901 94.98677278649 592.4867727864898 83.33052278649 578.1117727864901 83.33052278649H109.36177278649A26.03125 26.03125 0 0 0 83.33052278649 109.36177278649V630.2055227864901C83.33052278649 644.5805227864901 94.98677278649 656.2367727864901 109.36177278649 656.2367727864901H239.58052278649V786.4555227864901Q239.58052278649 789.8617727864901 240.39302278649 792.9555227864901A26.03125 26.03125 0 0 0 265.61177278649 825.4867727864901L666.1430227864901 825.3305227864901L825.3617727864901 666.1117727864901L760.4242727864901 601.1742727864901zM187.48677278649 187.48677278649L240.54927278649 399.76802278649L444.92427278649 604.1430227864901H135.39302278649V135.39302278649H552.0492727864901V392.8305227864899L399.76802278649 240.5492727864899zM604.1430227864901 444.92427278649V291.64302278649H708.2992727864898V549.0805227864901zM614.2055227864898 773.4242727864901H291.64302278649V656.2367727864901H497.0180227864901z" />
    <glyph glyph-name="wc-categories"
      unicode="&#xEA24;"
      horiz-adv-x="1000" d="M143.25 943C177.75 979.5 221.75 1000 277.75 1000C329.75 1000 377.7500000000001 979.5 412.7500000000001 943L530.25 822C569.2500000000001 785.5 586.2500000000001 740.5 586.2500000000001 689C586.2500000000001 645 573.7500000000001 602.5 545.25 568L564.25 548.5C598.75 575 639.7500000000001 590 684.25 590C737.2500000000001 590 780.7500000000001 569 818.2500000000001 534S939.75 409 939.75 409C978.75 372.5 995.25 328.0000000000001 999.25 277.5000000000001V275.5000000000001C999.25 224.0000000000001 982.25 179 943.25 142.0000000000001L856.25 57.0000000000001C821.25 20.5 773.75 0 721.75 0S621.75 20.5 587.25 57L466.2499999999999 177.5C427.25 214.5 410.25 259.5 410.25 311C410.25 355 422.75 397.5 451.2499999999999 431.9999999999999L432.25 451.4999999999999C397.75 424.9999999999999 356.75 409.9999999999999 312.25 409.9999999999999C259.25 409.9999999999999 215.75 430.9999999999999 178.25 466S56.2499999999999 588 56.2499999999999 588C18.25 628 0.75 672.5 0.75 724.5S17.75 821 56.75 858L143.75 943zM277.75 955.5C235.25 955.5 203.25 940.5 177.25 913H176.75L89.25 826.5C60.25 799 46.75 766 46.75 725S59.75 650.5 89.75 619L210.75 498C241.75 469 273.75 454.5 312.25 454.5S387.25 469.5 417.75 498L434.75 514L516.2499999999999 432L499.7499999999999 416.5000000000001C470.7499999999999 389.5000000000001 457.2499999999999 353.0000000000001 457.2499999999999 311S470.2499999999999 236.5 499.7499999999999 209.5S621.7499999999999 87.5 621.7499999999999 87.5C647.75 60 683.2499999999999 45 722.25 45S796.75 60 822.75 87.5H823.25L911.2499999999998 174C940.25 201.0000000000001 953.25 234 953.7499999999998 275C950.25 317.0000000000001 936.7499999999998 350.5 907.7499999999998 377.5000000000001S786.2499999999998 502.5000000000001 786.2499999999998 502.5000000000001C755.7499999999999 531 723.2499999999999 545.5 685.2499999999999 545.5S610.2499999999999 530.5 579.7499999999998 502.0000000000001L562.7499999999998 486.0000000000001L481.2499999999998 568.0000000000001L497.7499999999998 583.5000000000001C526.7499999999998 610.5000000000002 540.2499999999998 647.0000000000001 540.2499999999998 689.0000000000001S527.2499999999998 763.5000000000001 497.7499999999998 790.5000000000001S379.25 912.5 379.25 912.5C353.25 940 317.75 955 278.75 955zM252.75 833.5S248.25 830 246.25 828C219.25 801.5 191.75 775 164.7499999999999 748C159.2499999999999 743 156.7499999999999 735.5 156.7499999999999 724.5C156.7499999999999 717.5 160.7499999999999 709 169.2499999999999 700.5L295.75 574.5C303.25 567 312.75 567 322.25 569C320.75 569 313.25 579 312.25 580.5C308.25 585.5 304.25 590.5 301.25 596.5C300.25 599 298.25 602.5 297.25 607C295.25 615 292.75 622.5 292.75 631.5C292.75 673.5 326.25 711 369.25 711C385.75 711 402.2499999999999 705.5 414.75 695C418.25 692.5 421.25 689 424.25 686.5C425.75 687.5 427.25 689.5 427.25 691.5C427.25 696 422.75 701.5 420.25 705C410.75 717.5 397.7499999999999 728 386.75 739L326.75 799A687.4999999999999 687.4999999999999 0 0 0 300.25 826.5C293.25 834.5 283.75 841 272.7499999999999 841C265.7499999999999 841 258.7499999999999 837.5 252.7499999999999 833zM417.75 630S406.25 640.5 405.75 641.5C398.25 648.5 392.25 658 382.75 662.5A50 50 0 0 1 371.25 665.5C362.25 667 353.25 663 347.25 657C340.2499999999999 650 335.7499999999999 635.5 338.2499999999999 626C339.7499999999999 620.5 343.75 615.5 347.25 611C355.25 600.5 362.75 590.5 372.25 581.5L390.75 564L373.75 548C359.25 534 338.25 524 315.75 524C299.25 524 274.75 527.5 259.75 546L135.75 669.5C121.25 683.5 110.25 703 110.25 724.5C110.25 742 114.75 763 132.25 779.5L213.25 858.5C228.75 873.5 250.75 889 273.75 888.5C301.75 887.5 319.25 871 338.25 852.5C349.75 841 361.25 829.5 372.75 818.5L450.7499999999999 740.5C461.2499999999999 730 469.25 716.5 471.25 702S475.25 672.5 469.75 658.5C465.7499999999999 648 458.7499999999999 638.5 450.25 630.5L434.25 615.5L418.25 630.5zM674.2499999999999 430.5S677.2499999999999 427.5 677.7499999999999 426.5C684.7499999999999 420 690.2499999999999 411.5 695.2499999999999 403C701.2499999999999 391.5000000000001 701.7499999999998 380 703.7499999999998 367.5C705.7499999999998 356.5 700.7499999999998 343.5 696.7499999999998 333.5C693.2499999999999 325.0000000000001 684.7499999999998 315.0000000000001 677.2499999999998 309Q665.9999999999999 299.25 651.7499999999999 294A74.0625 74.0625 0 0 0 580.7499999999999 305.5C578.7499999999999 306.5 573.7499999999999 308.5 569.25 313L567.25 315V311C567.25 300.5 570.25 292.9999999999999 575.7499999999999 287.5L652.7499999999999 210.5L684.7499999999999 178.5C695.7499999999999 167.5 703.7499999999999 159.5 721.2499999999999 160C730.7499999999998 160 735.7499999999998 160.5 741.7499999999998 168L750.7499999999999 177C758.7499999999999 185 767.2499999999998 193.0000000000001 775.2499999999998 201.0000000000001C791.2499999999998 217.0000000000001 807.2499999999998 232.5 823.7499999999998 248.5L827.7499999999998 252.5000000000001C841.2499999999998 265 836.2499999999998 287.5000000000001 823.2499999999999 299.5000000000001L738.7499999999998 383.5000000000001L713.2499999999999 409C709.7499999999999 412.5 706.2499999999999 416.5 702.7499999999999 420.5A34.375 34.375 0 0 1 688.7499999999999 430.5C685.2499999999999 431.5 681.7499999999999 432.5 678.2499999999999 432.5C677.2499999999999 432.5 674.2499999999999 432.5 673.75 431zM579.25 370C589.7499999999999 360 600.25 344 614.7499999999999 339.5C626.75 335.5 640.2499999999999 337.0000000000001 649.2499999999999 346C658.7499999999999 355.4999999999999 660.2499999999999 368.4999999999999 655.2499999999999 381C646.75 402.5 624.75 419 608.2499999999999 434L620.7499999999998 449.5C638.2499999999998 471.5 661.7499999999999 476 680.7499999999999 476C701.7499999999999 476 723.7499999999999 466.5 736.7499999999999 450L856.7499999999999 330C872.2499999999999 315.5 881.2499999999999 294.9999999999999 883.75 273.9999999999999C886.2499999999999 254.5 874.75 233.4999999999999 860.7499999999999 219.9999999999999L773.2499999999999 134.4999999999999C756.75 118.9999999999999 739.2499999999999 113.9999999999999 719.2499999999999 113.9999999999999C702.7499999999999 113.9999999999999 678.2499999999998 117.4999999999998 663.2499999999998 135.9999999999999L543.2499999999998 255.9999999999999C526.2499999999998 272.4999999999999 521.2499999999998 292.9999999999999 521.2499999999998 311C521.2499999999998 335.4999999999999 531.7499999999998 355.4999999999999 547.2499999999998 369.4999999999999L563.2499999999999 384.5L579.2499999999999 369.4999999999999z" />
    <glyph glyph-name="wc-categories-1"
      unicode="&#x77;&#x63;&#x2D;&#x63;&#x61;&#x74;&#x65;&#x67;&#x6F;&#x72;&#x69;&#x65;&#x73;"
      horiz-adv-x="1000" d="M143.25 943C177.75 979.5 221.75 1000 277.75 1000C329.75 1000 377.7500000000001 979.5 412.7500000000001 943L530.25 822C569.2500000000001 785.5 586.2500000000001 740.5 586.2500000000001 689C586.2500000000001 645 573.7500000000001 602.5 545.25 568L564.25 548.5C598.75 575 639.7500000000001 590 684.25 590C737.2500000000001 590 780.7500000000001 569 818.2500000000001 534S939.75 409 939.75 409C978.75 372.5 995.25 328.0000000000001 999.25 277.5000000000001V275.5000000000001C999.25 224.0000000000001 982.25 179 943.25 142.0000000000001L856.25 57.0000000000001C821.25 20.5 773.75 0 721.75 0S621.75 20.5 587.25 57L466.2499999999999 177.5C427.25 214.5 410.25 259.5 410.25 311C410.25 355 422.75 397.5 451.2499999999999 431.9999999999999L432.25 451.4999999999999C397.75 424.9999999999999 356.75 409.9999999999999 312.25 409.9999999999999C259.25 409.9999999999999 215.75 430.9999999999999 178.25 466S56.2499999999999 588 56.2499999999999 588C18.25 628 0.75 672.5 0.75 724.5S17.75 821 56.75 858L143.75 943zM277.75 955.5C235.25 955.5 203.25 940.5 177.25 913H176.75L89.25 826.5C60.25 799 46.75 766 46.75 725S59.75 650.5 89.75 619L210.75 498C241.75 469 273.75 454.5 312.25 454.5S387.25 469.5 417.75 498L434.75 514L516.2499999999999 432L499.7499999999999 416.5000000000001C470.7499999999999 389.5000000000001 457.2499999999999 353.0000000000001 457.2499999999999 311S470.2499999999999 236.5 499.7499999999999 209.5S621.7499999999999 87.5 621.7499999999999 87.5C647.75 60 683.2499999999999 45 722.25 45S796.75 60 822.75 87.5H823.25L911.2499999999998 174C940.25 201.0000000000001 953.25 234 953.7499999999998 275C950.25 317.0000000000001 936.7499999999998 350.5 907.7499999999998 377.5000000000001S786.2499999999998 502.5000000000001 786.2499999999998 502.5000000000001C755.7499999999999 531 723.2499999999999 545.5 685.2499999999999 545.5S610.2499999999999 530.5 579.7499999999998 502.0000000000001L562.7499999999998 486.0000000000001L481.2499999999998 568.0000000000001L497.7499999999998 583.5000000000001C526.7499999999998 610.5000000000002 540.2499999999998 647.0000000000001 540.2499999999998 689.0000000000001S527.2499999999998 763.5000000000001 497.7499999999998 790.5000000000001S379.25 912.5 379.25 912.5C353.25 940 317.75 955 278.75 955zM252.75 833.5S248.25 830 246.25 828C219.25 801.5 191.75 775 164.7499999999999 748C159.2499999999999 743 156.7499999999999 735.5 156.7499999999999 724.5C156.7499999999999 717.5 160.7499999999999 709 169.2499999999999 700.5L295.75 574.5C303.25 567 312.75 567 322.25 569C320.75 569 313.25 579 312.25 580.5C308.25 585.5 304.25 590.5 301.25 596.5C300.25 599 298.25 602.5 297.25 607C295.25 615 292.75 622.5 292.75 631.5C292.75 673.5 326.25 711 369.25 711C385.75 711 402.2499999999999 705.5 414.75 695C418.25 692.5 421.25 689 424.25 686.5C425.75 687.5 427.25 689.5 427.25 691.5C427.25 696 422.75 701.5 420.25 705C410.75 717.5 397.7499999999999 728 386.75 739L326.75 799A687.4999999999999 687.4999999999999 0 0 0 300.25 826.5C293.25 834.5 283.75 841 272.7499999999999 841C265.7499999999999 841 258.7499999999999 837.5 252.7499999999999 833zM417.75 630S406.25 640.5 405.75 641.5C398.25 648.5 392.25 658 382.75 662.5A50 50 0 0 1 371.25 665.5C362.25 667 353.25 663 347.25 657C340.2499999999999 650 335.7499999999999 635.5 338.2499999999999 626C339.7499999999999 620.5 343.75 615.5 347.25 611C355.25 600.5 362.75 590.5 372.25 581.5L390.75 564L373.75 548C359.25 534 338.25 524 315.75 524C299.25 524 274.75 527.5 259.75 546L135.75 669.5C121.25 683.5 110.25 703 110.25 724.5C110.25 742 114.75 763 132.25 779.5L213.25 858.5C228.75 873.5 250.75 889 273.75 888.5C301.75 887.5 319.25 871 338.25 852.5C349.75 841 361.25 829.5 372.75 818.5L450.7499999999999 740.5C461.2499999999999 730 469.25 716.5 471.25 702S475.25 672.5 469.75 658.5C465.7499999999999 648 458.7499999999999 638.5 450.25 630.5L434.25 615.5L418.25 630.5zM674.2499999999999 430.5S677.2499999999999 427.5 677.7499999999999 426.5C684.7499999999999 420 690.2499999999999 411.5 695.2499999999999 403C701.2499999999999 391.5000000000001 701.7499999999998 380 703.7499999999998 367.5C705.7499999999998 356.5 700.7499999999998 343.5 696.7499999999998 333.5C693.2499999999999 325.0000000000001 684.7499999999998 315.0000000000001 677.2499999999998 309Q665.9999999999999 299.25 651.7499999999999 294A74.0625 74.0625 0 0 0 580.7499999999999 305.5C578.7499999999999 306.5 573.7499999999999 308.5 569.25 313L567.25 315V311C567.25 300.5 570.25 292.9999999999999 575.7499999999999 287.5L652.7499999999999 210.5L684.7499999999999 178.5C695.7499999999999 167.5 703.7499999999999 159.5 721.2499999999999 160C730.7499999999998 160 735.7499999999998 160.5 741.7499999999998 168L750.7499999999999 177C758.7499999999999 185 767.2499999999998 193.0000000000001 775.2499999999998 201.0000000000001C791.2499999999998 217.0000000000001 807.2499999999998 232.5 823.7499999999998 248.5L827.7499999999998 252.5000000000001C841.2499999999998 265 836.2499999999998 287.5000000000001 823.2499999999999 299.5000000000001L738.7499999999998 383.5000000000001L713.2499999999999 409C709.7499999999999 412.5 706.2499999999999 416.5 702.7499999999999 420.5A34.375 34.375 0 0 1 688.7499999999999 430.5C685.2499999999999 431.5 681.7499999999999 432.5 678.2499999999999 432.5C677.2499999999999 432.5 674.2499999999999 432.5 673.75 431zM579.25 370C589.7499999999999 360 600.25 344 614.7499999999999 339.5C626.75 335.5 640.2499999999999 337.0000000000001 649.2499999999999 346C658.7499999999999 355.4999999999999 660.2499999999999 368.4999999999999 655.2499999999999 381C646.75 402.5 624.75 419 608.2499999999999 434L620.7499999999998 449.5C638.2499999999998 471.5 661.7499999999999 476 680.7499999999999 476C701.7499999999999 476 723.7499999999999 466.5 736.7499999999999 450L856.7499999999999 330C872.2499999999999 315.5 881.2499999999999 294.9999999999999 883.75 273.9999999999999C886.2499999999999 254.5 874.75 233.4999999999999 860.7499999999999 219.9999999999999L773.2499999999999 134.4999999999999C756.75 118.9999999999999 739.2499999999999 113.9999999999999 719.2499999999999 113.9999999999999C702.7499999999999 113.9999999999999 678.2499999999998 117.4999999999998 663.2499999999998 135.9999999999999L543.2499999999998 255.9999999999999C526.2499999999998 272.4999999999999 521.2499999999998 292.9999999999999 521.2499999999998 311C521.2499999999998 335.4999999999999 531.7499999999998 355.4999999999999 547.2499999999998 369.4999999999999L563.2499999999999 384.5L579.2499999999999 369.4999999999999z" />
    <glyph glyph-name="wc-chart-stacked-bar"
      unicode="&#xEA25;"
      horiz-adv-x="1000" d="M166.6875 874.96875C190.96875 874.96875 208.34375 856.3125 208.34375 833.3125V208.3125H831.03125C855.3125 208.3125 875 189.65625 875 166.6562500000001S855.3125 125.0000000000001 831.03125 125.0000000000001H125V833.34375C125 856.34375 142.375 875 166.65625 875zM833.375 499.9687499999999V291.625H500.03125V499.9687499999999zM416.6875000000001 499.9687499999999V291.625H291.6875000000001V499.9687499999999zM625.03125 833.3125V624.96875H291.6875V833.3125zM833.375 833.3125V624.96875H708.375V833.3125z" />
    <glyph glyph-name="wc-chart-stacked-bar-1"
      unicode="&#x77;&#x63;&#x2D;&#x63;&#x68;&#x61;&#x72;&#x74;&#x2D;&#x73;&#x74;&#x61;&#x63;&#x6B;&#x65;&#x64;&#x2D;&#x62;&#x61;&#x72;"
      horiz-adv-x="1000" d="M166.6875 874.96875C190.96875 874.96875 208.34375 856.3125 208.34375 833.3125V208.3125H831.03125C855.3125 208.3125 875 189.65625 875 166.6562500000001S855.3125 125.0000000000001 831.03125 125.0000000000001H125V833.34375C125 856.34375 142.375 875 166.65625 875zM833.375 499.9687499999999V291.625H500.03125V499.9687499999999zM416.6875000000001 499.9687499999999V291.625H291.6875000000001V499.9687499999999zM625.03125 833.3125V624.96875H291.6875V833.3125zM833.375 833.3125V624.96875H708.375V833.3125z" />
    <glyph glyph-name="wc-chart-stacked-column"
      unicode="&#xEA26;"
      horiz-adv-x="1000" d="M166.6875 874.96875C189.6875 874.96875 208.34375 856.3125 208.34375 833.3125V208.3125H833.34375A41.65625 41.65625 0 0 0 833.34375 125H125V833.34375C125 856.34375 143.65625 875 166.65625 875zM833.375 624.96875V291.625H625.03125V624.96875zM500.03125 416.625V291.625H291.6875V416.625zM500.03125 833.3125V499.96875H291.6875V833.3125zM833.375 833.3125V708.3125H625.03125V833.3125z" />
    <glyph glyph-name="wc-chart-stacked-column-1"
      unicode="&#x77;&#x63;&#x2D;&#x63;&#x68;&#x61;&#x72;&#x74;&#x2D;&#x73;&#x74;&#x61;&#x63;&#x6B;&#x65;&#x64;&#x2D;&#x63;&#x6F;&#x6C;&#x75;&#x6D;&#x6E;"
      horiz-adv-x="1000" d="M166.6875 874.96875C189.6875 874.96875 208.34375 856.3125 208.34375 833.3125V208.3125H833.34375A41.65625 41.65625 0 0 0 833.34375 125H125V833.34375C125 856.34375 143.65625 875 166.65625 875zM833.375 624.96875V291.625H625.03125V624.96875zM500.03125 416.625V291.625H291.6875V416.625zM500.03125 833.3125V499.96875H291.6875V833.3125zM833.375 833.3125V708.3125H625.03125V833.3125z" />
    <glyph glyph-name="wc-chart"
      unicode="&#xEA27;"
      horiz-adv-x="1000" d="M166.6875 874.96875C189.6875 874.96875 208.34375 856.3125 208.34375 833.3125V208.3125H833.34375A41.65625 41.65625 0 0 0 833.34375 125H125V833.34375C125 856.34375 143.65625 875 166.65625 875zM833.375 833.3125V291.6562500000001H625.03125V833.3125zM500.03125 624.96875V291.625H291.6875V624.96875z" />
    <glyph glyph-name="wc-chart-1"
      unicode="&#x77;&#x63;&#x2D;&#x63;&#x68;&#x61;&#x72;&#x74;"
      horiz-adv-x="1000" d="M166.6875 874.96875C189.6875 874.96875 208.34375 856.3125 208.34375 833.3125V208.3125H833.34375A41.65625 41.65625 0 0 0 833.34375 125H125V833.34375C125 856.34375 143.65625 875 166.65625 875zM833.375 833.3125V291.6562500000001H625.03125V833.3125zM500.03125 624.96875V291.625H291.6875V624.96875z" />
    </font>
</defs>
</svg>
